новый адрес пиратбит piratbit
Мега распродажа FORZA HORIZON 4 ULTIMATE+ВСЕ DLC+ОНЛАЙН всего за 499р. 349 руб. (супер цена). Внимание количество ограничено!!!

iTunes

1+1

iTunes

мы

iTunes

1

iTunes

Чернобыль

iTunes

Ральф против интернета

Лицензия

ПШазам

Лицензия

Игра престолов

Лицензия

30
pack

ВАЖНО

!!Акция!!

Alien_RageХит недели

RePack

Resident Evil 21

ИГРА 18+

pack

RePack

Metro:Exodus

!!Акция!!

Alien_Rage

RePack

fifa19

RePack

Assassins Creed: Odyssey

RePack

NEED FOR SPEED™ PAYBACK

3 сезон

9 сезон

Бесстыжие 9 сезон

Все сериалы

все сериалы на PB.wtf

RePack

FAR CRY 5
Ребята, катастрофически не хватает 1900р. для оплаты серверов за Октябрь (всвязи с блокировками трафик упал в 3 раза), 1-2р., выручайте.
  

Ёлки Последние (Тимур Бекмамбетов, Егор Баранов, Анна Пармас) [2018, комедия, WEB-DLRip] pb.wtf

Ёлки Последние через торрент pb.wtf

Раздают: 7 [ 0 KB/s ]
Размер: 1.46 GB | Добавлен: 9 мес. назад | Торрент скачан:1469 раз
Скачать  

24-01-2019 05:38 Ёлки Последние Скачать торрент  

Ёлки Последние

Страна: Россия
Жанр: комедия
Год выпуска: 2018
Продолжительность: 01:36:37
Субтитры: нет

Режиссер: Тимур Бекмамбетов, Егор Баранов, Анна Пармас
В ролях: Иван Ургант, Сергей Светлаков, Дмитрий Нагиев, Елена Яковлева, Юлия Александрова, Даниил Вахрушев, Александр Головин, Александр Домогаров мл., Юрий Кузнецов, Марк Богатырев

Описание: «Ёлки Последние» станут самыми трогательными, добрыми и волшебными из всех, потому что любимые герои будут прощаться со зрителями. В киноальманах войдет пять новогодних историй. В новелле «Сосны» миллениал поможет своему брутальному отчиму дяде Юре сделать предложение руки и сердца. В «Братьях» неразлучные друзья Боря и Женя вновь окажутся на грани расставания, потому что Женя собирается вернуться в Якутск. Лыжник и сноубордист перевернут весь город ради улыбки одной красавицы в новелле «Ресторан быстрого знакомства». «Вокзал на троих» расскажет историю о простой девушке из Воронежа, отправившейся в погоню за своим счастьем - столичным актером Комаровским, а в новелле «Вредный дедушка» Снегурочка поедет спасать одинокого, но очень ворчливого дедушку.



Качество видео: WEB-DLRip
Формат видео: AVI

Видео: 720x304 (2.37:1), 24.000 fps, XviD build 73 ~1767 kbps avg, 0.34 bit/pixel
Аудио: 48 kHz, AC3 Dolby Digital, 3/2 (L,C,R,l,r) + LFE ch, ~384 kbps - iTunes


Сэмпл

Код:

Формат                                   : AVI
Формат/Информация                        : Audio Video Interleave
Размер файла                             : 1,46 Гбайт
Продолжительность                        : 1 ч. 36 м.
Общий поток                              : 2161 Кбит/сек
Программа кодирования                    : VirtualDubMod 1.5.10.3 | www.virtualdub-fr.org || (build 2550/release)
Библиотека кодирования                   : VirtualDubMod build 2550/release

Видео
Идентификатор                            : 0
Формат                                   : MPEG-4 Visual
Профиль формата                          : Advanced Simple@L5
Настройки формата                        : BVOP1 / Custom Matrix
Параметр BVOP формата                    : 1
Параметр QPel формата                    : Нет
Параметр GMC формата                     : Без точки перехода
Параметр матрицы формата                 : Выборочная
Идентификатор кодека                     : XVID
Идентификатор кодека/Подсказка           : XviD
Продолжительность                        : 1 ч. 36 м.
Битрейт                                  : 1767 Кбит/сек
Ширина                                   : 720 пикселей
Высота                                   : 304 пикселя
Соотношение сторон                       : 2,35:1
Частота кадров                           : 24,000 кадра/сек
Цветовое пространство                    : YUV
Субдискретизация насыщенности            : 4:2:0
Битовая глубина                          : 8 бит
Тип развёртки                            : Прогрессивная
Метод сжатия                             : С потерями
Бит/(Пиксели*Кадры)                      : 0.336
Размер потока                            : 1,19 Гбайт (82%)
Библиотека кодирования                   : XviD 73

Аудио
Идентификатор                            : 1
Формат                                   : AC-3
Формат/Информация                        : Audio Coding 3
Коммерческое название                    : Dolby Digital
Идентификатор кодека                     : 2000
Продолжительность                        : 1 ч. 36 м.
Вид битрейта                             : Постоянный
Битрейт                                  : 384 Кбит/сек
Каналы                                   : 6 каналов
Channel layout                           : L R C LFE Ls Rs
Частота                                  : 48,0 КГц
Частота кадров                           : 31,250 кадров/сек (1536 SPF)
Битовая глубина                          : 16 бит
Метод сжатия                             : С потерями
Размер потока                            : 265 Мбайт (18%)
Выравнивание                             : Разделение по промежуткам
Продолжительность промежутка             : 42  мс. (1,00 видеокадр)
Время предзагрузки промежутка            : 500  мс.
ServiceKind/String                       : Complete Main

pb.wtf



Скачать Ёлки Последние через торрент https://i6.imageban.ru/out/2019/01/24/ccfd5fee28aa536d05f2d0c61b799254.png Скачать фильм Ёлки Последние через торрент бесплантно в хорошем качестве Описание: «Ёлки Последние» станут самыми трогательными, добрыми и волшебными из всех, потому что любимые герои будут прощаться со ... 9.7 10 40
Info! Золотая раздача, скачанное не засчитывается.
Торрент: Зарегистрирован [2019-01-24 05:38] · скачан: 1 469 раз
Статус: √ проверено
Размер: 1.46 GB
Как cкачать? Как скачать Ёлки Последние через торрент | qTorrent

% Раздел Тема Автор DL S | L
Документальные фильмы и телепередачи [ 538 MB ] Последний день. Владислав Галкин [2019 Документальный SATRip] Armstrong Скачать
1 | 0
Наши фильмы (HD, WEB-DL 720p, 1080p) [ 3.31 GB ] Ёлки Последние [2018 Россия WEB-DL 1080p] killermax2013 Скачать
2 | 0
Наши новые фильмы 2018-2019 [ 746 MB ] Ёлки Последние [2018 WEB-DLRip] bober100 Скачать
3 | 0
Наши новые фильмы 2018-2019 [ 1.61 GB ] Ёлки Последние [2018 WEB-DLRip-AVC] bober100 Скачать
1 | 0
Наши фильмы (HD, WEB-DL 720p, 1080p) [ 2.97 GB ] Ёлки Последние [2018 WEB-DL 720p] bober100 Скачать
2 | 0


>> Регистрируемся здесь <<






Отзывы и комментарии о схеме читаем и пишем здесь: ---> Отзывы и комментарии о схеме

Новые благодарочки в телеграм довольных пользователей:
скриншот   скриншот   скриншот   скриншот   скриншот

24-01-2019 06:08 Ёлки Последние Скачать торрент  

Топик был перенесен из форума Оформление раздач (Кино, Видео и ТВ) в форум Наши новые фильмы 2018-2019


DEVIpb.wtf



24-01-2019 06:27 Ёлки Последние Скачать торрент  

мусор pb.wtf



24-01-2019 07:52 Ёлки Последние Скачать торрент  

фуpb.wtf



24-01-2019 14:06 Ёлки Последние Скачать торрент  

о, а я с Пармас работал, та ещё ****)))pb.wtf



    Дорогой пользователь! Огромная просьба, поблагодарите релизера, оцените раздачу и оставьте свои комментарий, если Вы скачали Ёлки Последние через торрент бесплатно! Внесите свою лепту в развитие PiratBit!
    Комментировать посты могут только пользователи прошедшие не сложную регистрацию
    Показать сообщения:    

    Ёлки Последние через торрент
    Скачать бесплатно Ёлки Последние
    Ёлки Последние скачать торрент
    Ёлки Последние смотреть онлайн
    Cкачать фильм Ёлки Последние бесплатно
    Ёлки Последние скачать торрент в хорошем качестве
    Ёлки Последние смотреть онлайн бесплатно в хорошем качестве


    Вы не можете начинать темы
    Вы не можете отвечать на сообщения
    Вы не можете редактировать свои сообщения
    Вы не можете удалять свои сообщения
    Вы не можете голосовать в опросах
    Вы не можете прикреплять файлы к сообщениям
    Вы можете скачивать файлы