новый адрес пиратбит piratbit
Мега распродажа FORZA HORIZON 4 ULTIMATE+ВСЕ DLC+ОНЛАЙН всего за 499р. 349 руб. (супер цена). Внимание количество ограничено!!!

iTunes

1+1

iTunes

мы

iTunes

1

iTunes

Чернобыль

iTunes

Ральф против интернета

Лицензия

ПШазам

Лицензия

Игра престолов

Лицензия

30
pack

ВАЖНО

!!Акция!!

Alien_RageХит недели

RePack

Resident Evil 21

ИГРА 18+

pack

RePack

Metro:Exodus

!!Акция!!

Alien_Rage

RePack

fifa19

RePack

Assassins Creed: Odyssey

RePack

NEED FOR SPEED™ PAYBACK

3 сезон

9 сезон

Бесстыжие 9 сезон

Все сериалы

все сериалы на PB.wtf

RePack

FAR CRY 5
Ребята, катастрофически не хватает 1900р. для оплаты серверов за Октябрь (всвязи с блокировками трафик упал в 3 раза), 1-2р., выручайте.
  

Монета (Александр Алов, Владимир Наумов) [1962, СССР, драма, DVDRip от AVP Studio] pb.wtf

Монета через торрент pb.wtf

Размер: 1.09 GB | Добавлен: 9 мес. назад | Торрент скачан:4 раза
Скачать  

24-01-2019 10:12 Монета Скачать торрент  

Монета
Страна: СССР
Производство: Мосфильм

Жанр: драма
Год выпуска: 1962
Продолжительность: 01:27:06

Перевод: Не требуется
Cубтитры: нет
Оригинальная аудиодорожка: русский

Режиссер: Александр Алов, Владимир Наумов

В ролях:
Андрей Попов, Валерий Слапогузов, Ростислав Плятт, Глеб Стриженов, Эраст Гарин, Володя Маструков...
Об актёрах подробней

Описание:
Сборник теленовелл по мотивам рассказов Альберта Мальца. Действие происходит во времена Великой депрессии.
Фильм состоит из трех новелл, поставленных по рассказам «Игра», «Самый счастливый человек на свете», «Воскресенье в джунглях». Рассказы живописуют ужасную буржуазную действительность, где человек человеку — волк. Как только живут люди в капиталистическом мире? — вот единственный вопрос, который возникает у зрителя.

Источник: DVD5 R5
Качество видео: DVDRip
Формат видео: AVI

Видео: 688х512 (4:3), 25 fps, XviD ~ 1588 kbps avg, 0.180 bit/pixel
Аудио: 48 kHz, Dolby Digital AC3 2.0, 192 kbps

Раздача от:
Общее
Полное имя : Moneta.1962.DVDRip_[New-team]_by_AVP_Studio.avi
Формат : AVI
Формат/Информация : Audio Video Interleave
Размер файла : 1,09 Гбайт
Продолжительность : 1 ч. 27 м.
Общий поток : 1790 Кбит/сек
Программа кодирования : VirtualDubMod 1.5.10.3 | www.virtualdub-fr.org || (build 2550/release)
Библиотека кодирования : VirtualDubMod build 2550/release

Видео
Идентификатор : 0
Формат : MPEG-4 Visual
Профиль формата : Advanced Simple@L5
Настройки формата : BVOP1 / Custom Matrix
Параметр BVOP формата : 1
Параметр QPel формата : Нет
Параметр GMC формата : Без точки перехода
Параметр матрицы формата : Выборочная
Идентификатор кодека : XVID
Идентификатор кодека/Подсказка : XviD
Продолжительность : 1 ч. 27 м.
Битрейт : 1588 Кбит/сек
Ширина : 688 пикселей
Высота : 512 пикселей
Соотношение сторон : 4:3
Частота кадров : 25,000 кадров/сек
Цветовое пространство : YUV
Субдискретизация насыщенности : 4:2:0
Битовая глубина : 8 бит
Тип развёртки : Прогрессивная
Метод сжатия : С потерями
Бит/(Пиксели*Кадры) : 0.180
Размер потока : 989 Мбайт (89%)
Библиотека кодирования : XviD 73

Аудио
Идентификатор : 1
Формат : AC-3
Формат/Информация : Audio Coding 3
Коммерческое название : Dolby Digital
Идентификатор кодека : 2000
Продолжительность : 1 ч. 27 м.
Вид битрейта : Постоянный
Битрейт : 192 Кбит/сек
Каналы : 2 канала
Channel layout : L R
Частота : 48,0 КГц
Частота кадров : 31,250 кадров/сек (1536 SPF)
Битовая глубина : 16 бит
Метод сжатия : С потерями
Размер потока : 120 Мбайт (11%)
Выравнивание : Разделение по промежуткам
Продолжительность промежутка : 40 мс. (1,00 видеокадр)
Время предзагрузки промежутка : 500 мс
pb.wtf



Скачать Монета через торрент http://picplus.ru/img/1901/24/aab5619d.png Скачать фильм Монета через торрент бесплантно в хорошем качестве Описание:Сборник теленовелл по мотивам рассказов Альберта Мальца. Действие происходит во времена Великой депрессии.Фильм состоит из трех ... 5 10 1
Info! Золотая раздача, скачанное не засчитывается.
Торрент: Зарегистрирован [2019-01-24 10:12] · скачан: 4 раз
Статус: √ проверено
Размер: 1.09 GB
Как cкачать? Как скачать Монета через торрент | qTorrent

% Раздел Тема Автор DL S | L
Кино СССР [ 1.09 GB ] Монета [1962 СССР DVDRip-AVC от AVP Studio] AVP Studio Скачать
1 | 0
T Релизы по Парсеру [Игры, Сериалы и Фильмы и другое...] [ 1.46 GB ] Похищение монет / Coin Heist [2017 WEB-DLRip Любительский многоголосый [@MUZOBOZ@]] oleg8 Скачать
1 | 0
Фантастика [ 512 MB ] Артур Крупенин - AVE CAESAR! [Дмитрий Оргин 2016 128 kbps MP3] bober100 Скачать
1 | 0
Обои для рабочего стола [ 1.74 GB ] Фотографии - Эрмитаж. Медали и монеты Петровского времени [Аврора] [5065x3650] [33шт.] JPG PNG Ворон Скачать
1 | 0
Документальные фильмы и телепередачи [ 525 MB ] Разменная монета / Loose Change 2nd Edition [2008 документальный SATRip VO] metanoia Скачать
1 | 0
Документальные фильмы и телепередачи [ 114 MB ] Капитализм и рабство - две стороны одной монеты [2014 документальный WEBRip Оригинал] metanoia Скачать
1 | 0
Коллекционирование и вспомогательные ист. дисциплины [ 63 MB ] Прохорова Н. В. - Монеты и банкноты России [2009 DjVu] lexaBESpaniki Скачать
1 | 0


>> Регистрируемся здесь <<






Отзывы и комментарии о схеме читаем и пишем здесь: ---> Отзывы и комментарии о схеме

Новые благодарочки в телеграм довольных пользователей:
скриншот   скриншот   скриншот   скриншот   скриншот
    Дорогой пользователь! Огромная просьба, поблагодарите релизера, оцените раздачу и оставьте свои комментарий, если Вы скачали Монета через торрент бесплатно! Внесите свою лепту в развитие PiratBit!
    Комментировать посты могут только пользователи прошедшие не сложную регистрацию
    Показать сообщения:    

    Монета через торрент
    Скачать бесплатно Монета
    Монета скачать торрент
    Монета смотреть онлайн
    Cкачать фильм Монета бесплатно
    Монета скачать торрент в хорошем качестве
    Монета смотреть онлайн бесплатно в хорошем качестве


    Вы не можете начинать темы
    Вы не можете отвечать на сообщения
    Вы не можете редактировать свои сообщения
    Вы не можете удалять свои сообщения
    Вы не можете голосовать в опросах
    Вы не можете прикреплять файлы к сообщениям
    Вы можете скачивать файлы