новый адрес пиратбит piratbit
Мега распродажа FORZA HORIZON 4 ULTIMATE+ВСЕ DLC+ОНЛАЙН всего за 499р. 349 руб. (супер цена). Внимание количество ограничено!!!

iTunes

1+1

iTunes

мы

iTunes

1

iTunes

Чернобыль

iTunes

Ральф против интернета

Лицензия

ПШазам

Лицензия

Игра престолов

Лицензия

30
pack

ВАЖНО

!!Акция!!

Alien_RageХит недели

RePack

Resident Evil 21

ИГРА 18+

pack

RePack

Metro:Exodus

!!Акция!!

Alien_Rage

RePack

fifa19

RePack

Assassins Creed: Odyssey

RePack

NEED FOR SPEED™ PAYBACK

3 сезон

9 сезон

Бесстыжие 9 сезон

Все сериалы

все сериалы на PB.wtf

RePack

FAR CRY 5
Ребята, катастрофически не хватает 1900р. для оплаты серверов за Октябрь (всвязи с блокировками трафик упал в 3 раза), 1-2р., выручайте.
  

Монета (Александр Алов, Владимир Наумов) [1962, СССР, драма, DVDRip-AVC от AVP Studio] pb.wtf

Монета через торрент pb.wtf

Размер: 1.09 GB | Добавлен: 9 мес. назад | Торрент скачан:9 раз
Скачать  

24-01-2019 10:14 Монета Скачать торрент  

Монета
Страна: СССР
Производство: Мосфильм

Жанр: драма
Год выпуска: 1962
Продолжительность: 01:27:06

Перевод: Не требуется
Cубтитры: нет
Оригинальная аудиодорожка: русский

Режиссер: Александр Алов, Владимир Наумов

В ролях:
Андрей Попов, Валерий Слапогузов, Ростислав Плятт, Глеб Стриженов, Эраст Гарин, Володя Маструков...
Об актёрах подробней

Описание:
Сборник теленовелл по мотивам рассказов Альберта Мальца. Действие происходит во времена Великой депрессии.
Фильм состоит из трех новелл, поставленных по рассказам «Игра», «Самый счастливый человек на свете», «Воскресенье в джунглях». Рассказы живописуют ужасную буржуазную действительность, где человек человеку — волк. Как только живут люди в капиталистическом мире? — вот единственный вопрос, который возникает у зрителя.

Источник: DVD5 R5
Качество видео: DVDRip-AVC
Формат видео: MKV

Видео: 700->761х572 (4:3), 25 fps, H264 ~ 1596 kbps avg, 0.159 bit/pixel
Аудио: 48 kHz, Dolby Digital AC3 2.0, 192 kbps

Раздача от:
Общее
Полное имя : Moneta.1962.DVDRip-AVC_[New-team]_by_AVP_Studio.mkv
Формат : Matroska
Версия формата : Version 2
Размер файла : 1,09 Гбайт
Продолжительность : 1 ч. 27 м.
Общий поток : 1790 Кбит/сек
Дата кодирования : UTC 2019-01-21 18:20:39
Программа кодирования : mkvmerge v6.1.0 ('Old Devil') built on Mar 4 2013 09:10:42
Библиотека кодирования : libebml v1.3.0 + libmatroska v1.4.0

Видео
Идентификатор : 1
Формат : AVC
Формат/Информация : Advanced Video Codec
Профиль формата : High@L4.1
Настройки формата : CABAC / 10 Ref Frames
Параметр CABAC формата : Да
Параметр RefFrames формата : 10 кадров
Идентификатор кодека : V_MPEG4/ISO/AVC
Продолжительность : 1 ч. 27 м.
Битрейт : 1596 Кбит/сек
Ширина : 700 пикселей
Высота : 572 пикселя
Соотношение сторон : 4:3
Режим частоты кадров : Постоянный
Частота кадров : 25,000 кадров/сек
Цветовое пространство : YUV
Субдискретизация насыщенности : 4:2:0
Битовая глубина : 8 бит
Тип развёртки : Прогрессивная
Бит/(Пиксели*Кадры) : 0.159
Размер потока : 973 Мбайт (87%)
Библиотека кодирования : x264 core 157 r2932 303c484
Настройки программы : cabac=1 / ref=10 / deblock=1:-2:-1 / analyse=0x3:0x113 / me=umh / subme=10 / psy=1 / psy_rd=1.00:0.00 / mixed_ref=1 / me_range=32 / chroma_me=1 / trellis=2 / 8x8dct=1 / cqm=0 / deadzone=21,11 / fast_pskip=1 / chroma_qp_offset=-2 / threads=6 / lookahead_threads=1 / sliced_threads=0 / nr=0 / decimate=0 / interlaced=0 / bluray_compat=0 / constrained_intra=0 / bframes=8 / b_pyramid=2 / b_adapt=2 / b_bias=0 / direct=3 / weightb=1 / open_gop=0 / weightp=2 / keyint=250 / keyint_min=25 / scenecut=40 / intra_refresh=0 / rc=2pass / mbtree=0 / bitrate=1596 / ratetol=1.0 / qcomp=0.60 / qpmin=0 / qpmax=69 / qpstep=4 / cplxblur=20.0 / qblur=0.5 / ip_ratio=1.40 / pb_ratio=1.30 / aq=1:1.00
Default : Да
Forced : Нет

Аудио
Идентификатор : 2
Формат : AC-3
Формат/Информация : Audio Coding 3
Коммерческое название : Dolby Digital
Идентификатор кодека : A_AC3
Продолжительность : 1 ч. 27 м.
Вид битрейта : Постоянный
Битрейт : 192 Кбит/сек
Каналы : 2 канала
Channel layout : L R
Частота : 48,0 КГц
Частота кадров : 31,250 кадров/сек (1536 SPF)
Битовая глубина : 16 бит
Метод сжатия : С потерями
Размер потока : 120 Мбайт (11%)
Default : Да
Forced : Нет
pb.wtf



Скачать Монета через торрент http://picplus.ru/img/1901/24/aab5619d.png Скачать фильм Монета через торрент бесплантно в хорошем качестве Описание:Сборник теленовелл по мотивам рассказов Альберта Мальца. Действие происходит во времена Великой депрессии.Фильм состоит из трех ... 10 10 1
Info! Золотая раздача, скачанное не засчитывается.
Торрент: Зарегистрирован [2019-01-24 10:14] · скачан: 9 раз
Статус: √ проверено
Размер: 1.09 GB
Как cкачать? Как скачать Монета через торрент | qTorrent

% Раздел Тема Автор DL S | L
Кино СССР [ 1.09 GB ] Монета [1962 СССР DVDRip от AVP Studio] AVP Studio Скачать
1 | 0
T Релизы по Парсеру [Игры, Сериалы и Фильмы и другое...] [ 1.46 GB ] Похищение монет / Coin Heist [2017 WEB-DLRip Любительский многоголосый [@MUZOBOZ@]] oleg8 Скачать
1 | 0
Фантастика [ 512 MB ] Артур Крупенин - AVE CAESAR! [Дмитрий Оргин 2016 128 kbps MP3] bober100 Скачать
1 | 0
Обои для рабочего стола [ 1.74 GB ] Фотографии - Эрмитаж. Медали и монеты Петровского времени [Аврора] [5065x3650] [33шт.] JPG PNG Ворон Скачать
1 | 0
Документальные фильмы и телепередачи [ 525 MB ] Разменная монета / Loose Change 2nd Edition [2008 документальный SATRip VO] metanoia Скачать
1 | 0
Документальные фильмы и телепередачи [ 114 MB ] Капитализм и рабство - две стороны одной монеты [2014 документальный WEBRip Оригинал] metanoia Скачать
1 | 0
Коллекционирование и вспомогательные ист. дисциплины [ 63 MB ] Прохорова Н. В. - Монеты и банкноты России [2009 DjVu] lexaBESpaniki Скачать
1 | 0


>> Регистрируемся здесь <<






Отзывы и комментарии о схеме читаем и пишем здесь: ---> Отзывы и комментарии о схеме

Новые благодарочки в телеграм довольных пользователей:
скриншот   скриншот   скриншот   скриншот   скриншот
    Дорогой пользователь! Огромная просьба, поблагодарите релизера, оцените раздачу и оставьте свои комментарий, если Вы скачали Монета через торрент бесплатно! Внесите свою лепту в развитие PiratBit!
    Комментировать посты могут только пользователи прошедшие не сложную регистрацию
    Показать сообщения:    

    Монета через торрент
    Скачать бесплатно Монета
    Монета скачать торрент
    Монета смотреть онлайн
    Cкачать фильм Монета бесплатно
    Монета скачать торрент в хорошем качестве
    Монета смотреть онлайн бесплатно в хорошем качестве


    Вы не можете начинать темы
    Вы не можете отвечать на сообщения
    Вы не можете редактировать свои сообщения
    Вы не можете удалять свои сообщения
    Вы не можете голосовать в опросах
    Вы не можете прикреплять файлы к сообщениям
    Вы можете скачивать файлы