новый адрес
Ссылка на приватное зеркало всего за 1$. Внимание количество ограничено!!!

iTunes

1+1

iTunes

мы

WEB-DL

1

iTunes

Чернобыль

iTunes

Ральф против интернета

Лицензия

ПШазам

Лицензия

Оно 2

Лицензия

30
pack

Вам бонус

ВАЖНО

!!Акция!!

Alien_RageХит недели

RePack

Resident Evil 21

ИГРА 18+

pack

RePack

jed

!!Акция!!

Alien_Rage

RePack

fifa19

RePack

Assassins Creed: Odyssey

RePack

NEED FOR SPEED™ PAYBACK

3 сезон

9 сезон

Бесстыжие 9 сезон

Все сериалы

все сериалы на PB.wtf

RePack

FAR CRY 5
Ребята, катастрофически не хватает 1900р. для оплаты серверов за Октябрь (всвязи с блокировками трафик упал в 3 раза), 1-2р., выручайте.
  

Хэллфест / Hell Fest (Грегори Плоткин) [2018, Ужасы, BDRip] DUB [iTunes] pb.wtf

Хэллфест через торрент pb.wtf

Раздают: 1 [ 0 KB/s ]
Размер: 1.46 GB | Добавлен: 10 мес. назад | Торрент скачан:279 раз
Скачать  

24-01-2019 12:42 Хэллфест Скачать торрент  

Хэллфест / Hell Fest Год выпуска: 2018
Страна: США
Жанр: Ужасы
Продолжительность: 01:28:48
Перевод: Дублированный | iTunes
Субтитры: Нет

Режиссер: Грегори Плоткин

rating

В ролях:

Эми Форсайт, Рейн Эдвардс, Бекс Тейлор-Клаус, Кристиан Балис, Мэтт Меркьюрио, Тони Тодд, Микаэль Турек, Кортни Дитц, Эль Грэхэм, Алисия Росато

Описание:

Три подруги встречаются накануне Хэллоуина и вместе со своими парнями решают отметить праздник походом на Хэллфест, популярный фестиваль, главная цель организаторов и участников которого - напугать друг друга до полусмерти. Но для серийного убийцы в маске Хэллфест - это не просто карнавал ужасов, а площадка для смертельных игр. Он кромсает и душит у всех на виду, а возбужденная толпа и не подозревает, что вокруг множатся трупы. И, когда внимание маньяка переключается на Натали, Брук и Тейлор, девушки быстро понимают, что помощи ждать не от кого. Им предстоит бороться изо всех сил, чтобы пережить эту ночь.

Качество: BDRip
Формат: AVI

Видео: Xvid 73, 704x384, ~1951 kbps, 23,976 fps
Аудио: русский, AC3, 5.1 ch, 48 kHz, 384 kbps | iTunes
скриншот  скриншот  скриншот  скриншот  

General
Полное имя : E:TorrentHellFestBDRip.avi
Формат : AVI
Формат/Информация : Audio Video Interleave
Профиль формата : OpenDML
Размер файла : 1.46 GiB
Продолжительность : 1 h 28 min
Общий поток : 2 346 kb/s
Программа кодирования : XviD4PSP 6.0 / 54.27.101

Video
Идентификатор : 0
Формат : MPEG-4 Visual
Профиль формата : Advanced Simple@L5
Настройки формата : BVOP2 / Custom Matrix
Параметр BVOP формата : 2
Параметр QPel формата : No
Параметр GMC формата : No warppoints
Параметр матрицы формата : Custom
Идентификатор кодека : XVID
Идентификатор кодека/Подсказка : XviD
Продолжительность : 1 h 28 min
Битрейт : 1 951 kb/s
Ширина : 704 pixels
Высота : 384 pixels
Соотношение сторон : 1.85:1
Частота кадров : 23.976 (23976/1000) FPS
Цветовое пространство : YUV
Субдискретизация насыщенности : 4:2:0
Битовая глубина : 8 bits
Тип развёртки : Progressive
Метод сжатия : Lossy
Бит/(Пиксели*Кадры) : 0.301
Размер потока : 1.21 GiB (83%)
Библиотека кодирования : XviD 73

Audio
Идентификатор : 1
Формат : AC-3
Формат/Информация : Audio Coding 3
Идентификатор кодека : 2000
Продолжительность : 1 h 28 min
Вид битрейта : Constant
Битрейт : 384 kb/s
Каналы : 6 channels
Расположение каналов : Front: L C R, Side: L R, LFE
Частота : 48.0 kHz
Частота кадров : 31.250 FPS (1536 SPF)
Битовая глубина : 16 bits
Метод сжатия : Lossy
Размер потока : 244 MiB (16%)
Выравнивание : Aligned on interleaves
Продолжительность промежутка : 32 ms (0.77 video frame)

pb.wtf



Скачать Хэллфест через торрент http://lostpix.com/thumbs/2019-01/24/65q3r0870wsjrigbt8oe6gux3.png Скачать фильм Хэллфест через торрент бесплантно в хорошем качестве Описание: Три подруги встречаются накануне Хэллоуина и вместе со своими парнями решают отметить праздник походом на Хэллфест, популярный ... 9.2 10 11
Торрент: Зарегистрирован [2019-01-24 12:42] · скачан: 279 раз
Статус: √ проверено
Размер: 1.46 GB
Как cкачать? Как скачать Хэллфест через торрент | qTorrent

% Раздел Тема Автор DL S | L
Фильмы 2018 [DVDrip, WEB-DLRip, HDrip] (DUB, MVO) [ 1.42 GB ] Хэллфест / Hell Fest [2018 BDRip] - Twi7ter Скачать
1 | 0
Фильмы (Blu-ray, BD-Remux, HDDVD) [ 24.94 GB ] Хэллфест / Hell Fest [2018 BD Remux 1080p] bober100 Скачать
1 | 0
Ultra HD (UHD: 2K, 4K, 8K) — видео сверхвысокой чёткости [ 11.8 GB ] Хэллфест / Hell Fest [2018 UHD BDRip 2160p] bober100 Скачать
1 | 0
Ultra HD (UHD: 2K, 4K, 8K) — видео сверхвысокой чёткости [ 44.23 GB ] Хэллфест / Hell Fest [2018 UHD BDRemux 2160p] [ ] [Dolby Vision TV] sheker187 Скачать
1 | 0
Ultra HD (UHD: 2K, 4K, 8K) — видео сверхвысокой чёткости [ 43.67 GB ] Хэллфест / Hell Fest [2018 UHD BDRemux 2160p] bober100 Скачать
2 | 0
Ultra HD (UHD: 2K, 4K, 8K) — видео сверхвысокой чёткости [ 55.95 GB ] Хэллфест / Hell Fest [2018 UHD Blu-ray 2160p] [Dolby Vision] bober100 Скачать
2 | 0
Фильмы 2018 [DVDrip, WEB-DLRip, HDrip] (DUB, MVO) [ 1.91 GB ] Хэллфест / Hell Fest [2018 BDRip-AVC] bober100 Скачать
2 | 0

28-11-2019 20:33  

Отключить всю рекламу на сайте

    Дорогой пользователь! Огромная просьба, поблагодарите релизера, оцените раздачу и оставьте свои комментарий, если Вы скачали Хэллфест через торрент бесплатно! Внесите свою лепту в развитие PiratBit!
    Комментировать посты могут только пользователи прошедшие не сложную регистрацию
    Показать сообщения:    

    Хэллфест через торрент
    Скачать бесплатно Хэллфест
    Хэллфест скачать торрент
    Хэллфест смотреть онлайн
    Cкачать фильм Хэллфест бесплатно
    Хэллфест скачать торрент в хорошем качестве
    Хэллфест смотреть онлайн бесплатно в хорошем качестве


    Вы не можете начинать темы
    Вы не можете отвечать на сообщения
    Вы не можете редактировать свои сообщения
    Вы не можете удалять свои сообщения
    Вы не можете голосовать в опросах
    Вы не можете прикреплять файлы к сообщениям
    Вы можете скачивать файлы