Доктор Стрэндж

Лицензия

Добыча

Дубляж

Дом дракона

1 сезон

Тор

Дубляж

В эфире

Дубляж

Там, где раки поют

MVO

Властелин колец

1 сезон

Ultimate

pack

Рекомендуем

30

Пиратка

ВАЖНО

ВАЖНО

Ghostwire

Пиратка

jed

RePack

nioh2

RePack

RDR2

RePack

NEED FOR SPEED™ PAYBACK

RePack

скачать торрент

Кинопоиск HD

Острые козырьки 6 сезон

6 сезон

FAR CRY 6

RePack

скачать торрент

Лицензия

скачать торрент

MVO

1

1 сезон

скачать торрент

1 сезон

скачать торрент

Лицензия

  

Другие / Сезон: 1 / Серии: 1-16 из 16 (Ольга Доброва-Куликова) [2019, драма, SATRip]

Другие через торрент pb.wtf

Размер: 9.38 GB | Добавлен: 3 года 9 мес. назад | Торрент скачан:204 раза
Смотреть онлайн | Скачать   

24-01-2019 14:15 Другие Скачать торрент  

ДругиеГод выпуска: 2019
Страна: Россия
Жанр: драма
Продолжительность: ~ 00:50:00 серия
Перевод: Не требуется
Субтитры: отсутствуют

Режиссер: Ольга Доброва-Куликова



В ролях:

Елена Подкаминская, Кирилл Сафонов, Светлана Смирнова-Марцинкевич, Наталья Романычева, Сергей Горобченко, Эльдар Лебедев, Наталья Земцова, Мила Сивацкая, Марта Тимофеева, Анастасия Дятлова, Владимир Щербаков, Александр Синюков, Полина Богомолова, Виктор Конухин, Виктор Запорожский

Описание:

50-е годы. Бездетная пара берет из детского дома маленькую девочку. Скоро новоиспеченные родители обнаруживают, что им достался необычный ребенок, - из тех, кого сегодня называют экстрасенсами. Дочь доставляет родителям массу проблем, к которым те совершенно не готовы. Неожиданно возвращается из сталинских лагерей родная мать девочки, тоже обладающая паранормальными способностями. Она хочет забрать ребенка, но получает отказ. Сотрудник госбезопасности Гринёв обещает Вале вернуть дочь, если она поработает на разведку…

Качество: SATRip
Формат: AVI

Видео: XviD, 1500 Кбит/с, 720x400
Аудио: MP3, 2 ch, 192 Кбит/с
скриншот  скриншот  скриншот  скриншот  

Общее
Полное имя : D:\Drugie.2018.XviD.SATRip.25Kuzmich\Drugie.e01.XviD.SATRip.25Kuzmich.avi
Формат : AVI
Формат/Информация : Audio Video Interleave
Размер файла : 600 Мбайт
Продолжительность : 50 м. 55 с.
Общий поток : 1647 Кбит/сек
Программа кодирования : VirtualDubMod 1.5.10.3 | www.virtualdub-fr.org || (build 2550/release)
Библиотека кодирования : VirtualDubMod build 2550/release

Видео
Идентификатор : 0
Формат : MPEG-4 Visual
Профиль формата : Advanced [email protected]
Параметр BVOP формата : 1
Параметр QPel формата : Нет
Параметр GMC формата : Без точки перехода
Параметр матрицы формата : Default (MPEG)
Идентификатор кодека : XVID
Идентификатор кодека/Подсказка : XviD
Продолжительность : 50 м. 55 с.
Битрейт : 1446 Кбит/сек
Ширина : 720 пикселей
Высота : 400 пикселей
Соотношение сторон : 16:9
Частота кадров : 25,000 кадров/сек
Цветовое пространство : YUV
Субдискретизация насыщенности : 4:2:0
Битовая глубина : 8 бит
Тип развёртки : Прогрессивная
Метод сжатия : С потерями
Бит/(Пиксели*Кадры) : 0.201
Размер потока : 527 Мбайт (88%)
Библиотека кодирования : XviD 1.2.1 (UTC 2008-12-04)

Аудио
Идентификатор : 1
Формат : MPEG Audio
Версия формата : Version 1
Профиль формата : Layer 3
Режим : Joint stereo
Расширение режима : MS Stereo
Идентификатор кодека : 55
Идентификатор кодека/Подсказка : MP3
Продолжительность : 50 м. 55 с.
Вид битрейта : Постоянный
Битрейт : 192 Кбит/сек
Каналы : 2 канала
Частота : 48,0 КГц
Метод сжатия : С потерями
Размер потока : 69,9 Мбайт (12%)
Выравнивание : Соединение по промежуткам
Продолжительность промежутка : 40 мс. (1,00 видеокадр)
Время предзагрузки промежутка : 504 мс.
Библиотека кодирования : LAME3.99r
Настройки программы : -m j -V 4 -q 2 -lowpass 18.6 -b 192

Внимание! Раздача ведётся путём добавления новых серий; при каждом добавлении создаётся новый торрент.
Чтобы начать докачку новой серии, пользователям необходимо сделать следующее:
1. Остановить скачивание;
2. Удалить старый торрент у себя из клиента (старые серии удалять не надо);
3. Скачать новый торрент и запустить его у себя в клиенте вместо старого, при этом указать клиенту путь в старую папку куда и должно происходить скачивание новых серий. Ваш клиент при этом должен произвести хеширование (проверку) старой папки и будет докачивать только те серии, которых у вас ещё нет. Старые серии при этом не удаляются, а продолжают раздаваться! Eсли вы уже удалили старые серии, то предотвратить повторную закачку старых серий можно, отжав галочку в соответствующих местах при запуске нового торрента.



Скачать Другие через торрент https://i110.fastpic.ru/big/2019/0121/37/66549d54be6e71b63b73be97adda4137.jpg Скачать, смотреть онлайн Другие бесплантно в хорошем качестве Описание: 50-е годы. Бездетная пара берет из детского дома маленькую девочку. Скоро новоиспеченные родители обнаруживают, что им достался ... 9.8 10 13
Торрент: Зарегистрирован [2019-01-31 15:24] · скачан: 204 раз
Статус: √ проверено
Размер: 9.38 GB
Как cкачать? Как скачать Другие через торрент | UTorrent

% Раздел Тема Автор DL S | L
Наши сериалы [ 10.28 GB ] Другие / Сезон: 1 / Серии: 1-16 из 16 | | WEBRip-AVC bober100 Скачать
1 | 0
Наши сериалы [ 10.82 GB ] Другие / Серии: 1-16 из 16 | | SATRip-AVC aleksan55 Скачать
1 | 0
Наши сериалы [ 10.33 GB ] Другие / Серии 1-16 из 16 | | WEBRip oleg8 Скачать
1 | 0



Последний раз редактировалось: bober100 (2019-01-31 15:24), всего редактировалось 3 раз(а)

28-11-2019 20:33  


Отключить вcю реклaмy на сайте, в т.ч. и в плеере онлайн просмотра!

28-01-2019 14:36 Другие Скачать торрент  

Спасибо !!! вот этот наш формат



15-02-2019 07:37 Другие Скачать торрент  

мне понравился....



    Дорогой пользователь! Огромная просьба, поблагодарите релизера, оцените раздачу и оставьте свои комментарий, если Вы скачали Другие через торрент бесплатно!!
    Комментировать посты могут только пользователи прошедшие не сложную регистрацию
    Показать сообщения:    


    Другие через торрент
    Скачать бесплатно Другие
    Другие скачать торрент
    Другие смотреть онлайн
    Cкачать фильм Другие бесплатно
    Другие скачать торрент в хорошем качестве
    Другие смотреть онлайн бесплатно в хорошем качестве
    Вы не можете начинать темы
    Вы не можете отвечать на сообщения
    Вы не можете редактировать свои сообщения
    Вы не можете удалять свои сообщения
    Вы не можете голосовать в опросах
    Вы не можете прикреплять файлы к сообщениям
    Вы можете скачивать файлы
    Другие / Сезон: 1 / Серии: 1-16 из 16 [2019, драма, SATRip] смотреть онлайн, скачать торрент picoco.icu