новый адрес
Ссылка на приватное зеркало всего за 1$. Внимание количество ограничено!!!

iTunes

1+1

iTunes

мы

WEB-DL

1

iTunes

Чернобыль

iTunes

Ральф против интернета

Лицензия

ПШазам

Лицензия

Оно 2

Лицензия

30
pack

Вам бонус

ВАЖНО

!!Акция!!

Alien_RageХит недели

RePack

Resident Evil 21

ИГРА 18+

pack

RePack

jed

!!Акция!!

Alien_Rage

RePack

fifa19

RePack

Assassins Creed: Odyssey

RePack

NEED FOR SPEED™ PAYBACK

3 сезон

9 сезон

Бесстыжие 9 сезон

Все сериалы

все сериалы на PB.wtf

RePack

FAR CRY 5
Ребята, катастрофически не хватает 1900р. для оплаты серверов за Октябрь (всвязи с блокировками трафик упал в 3 раза), 1-2р., выручайте.
  

Господь, благослови этот извилистый путь / God Bless the Broken Road (Харольд Кронк) [2018, Драма, мелодрама, семейный, BDRip-AVC] MVO [HDRezka Studio] pb.wtf

Господь, благослови этот извилистый путь через торрент pb.wtf

Размер: 1.93 GB | Добавлен: 10 мес. назад | Торрент скачан:64 раза
Скачать  

24-01-2019 14:51 Господь, благослови этот извилистый путь Скачать торрент  

Господь, благослови этот извилистый путь / God Bless the Broken Road Год выпуска: 2018
Страна: США
Жанр: Драма, мелодрама, семейный
Продолжительность: 01:51:32
Перевод: Профессиональный (многоголосый) | HDRezka Studio
Субтитры: Английские (полные, SDH)

Режиссер: Харольд Кронк

rating

В ролях:

Линдсей Палсифер, Джордин Спаркс, ЛаДайниан Томлинсон, Эндрю В. Уолкер, Робин Гивенс, Макензи Мосс, Ким Делани, Гэри Граббс, Артур Картрайт, Мадлен Кэрролл

Описание:

Привычный мир Эмбер рушится после известия о том, что ее муж погиб во время службы в Афганистане. Трагедия изменила все в ее жизни. Она перестала ходить в церковь, где руководила хором, и сосредоточилась на воспитании своей маленькой дочери Бри. Все еще оплакивая потерю, Эмбер сталкивается с серьезными финансовыми трудностями и в любой момент может потерять дом. Пытаясь удержаться на плаву, женщина работает официанткой и распродает вещи, постепенно теряя веру в Бога. Но однажды она знакомится с гонщиком Коди Джексоном, который вскоре изменит ее жизнь.

Качество: BDRip-AVC
Формат: MKV

Видео: 1024x426 (2.40:1), 23,976 fps, x264 ~1 834 Кбит/сек, 0.175 bit/pixel
Аудио#1: 48 kHz, AC3 Dolby Digital, 2 (L,R) ch, ~192.00 kbps avg | RUS (HDRezka Studio)
Аудио#2: 48 kHz, AC3 Dolby Digital, 3/2 (L,C,R,l,r) + LFE ch, ~448.00 kbps avg | ENG
скриншот  скриншот  скриншот  скриншот  скриншот  

Общее
Уникальный идентификатор : 300656155269069766892718226656773497215 (0xE23044ECE4AB5434F821F0A31963617F)
Полное имя : F:\OlLanDGroup\God.Bless.The.Broken.Road.2018.BDRip(AVC).OlLanDGroup.mkv
Формат : Matroska
Версия формата : Version 4 / Version 2
Размер файла : 1,93 Гбайт
Продолжительность : 1 ч. 51 м.
Общий поток : 2473 Кбит/сек
Название фильма : God.Bless.The.Broken.Road.2018 #TorpedoUK#
Дата кодирования : UTC 2019-01-24 14:23:24
Программа кодирования : mkvmerge v29.0.0 ('Like It Or Not') 64-bit
Библиотека кодирования : libebml v1.3.6 + libmatroska v1.4.9

Видео
Идентификатор : 1
Формат : AVC
Формат/Информация : Advanced Video Codec
Профиль формата : High@L4.1
Параметр CABAC формата : Да
Параметр ReFrames формата : 10 кадров
Идентификатор кодека : V_MPEG4/ISO/AVC
Продолжительность : 1 ч. 51 м.
Битрейт : 1834 Кбит/сек
Ширина : 1024 пикселя
Высота : 426 пикселей
Соотношение сторон : 2,40:1
Режим частоты кадров : Постоянный
Частота кадров : 23,976 (24000/1001) кадра/сек
Цветовое пространство : YUV
Субдискретизация насыщенности : 4:2:0
Битовая глубина : 8 бит
Тип развёртки : Прогрессивная
Бит/(Пиксели*Кадры) : 0.175
Размер потока : 1,43 Гбайт (74%)
Библиотека кодирования : x264 core 146 r2538 121396c
Настройки программы : cabac=1 / ref=10 / deblock=1:-3:-3 / analyse=0x3:0x113 / me=umh / subme=11 / psy=1 / psy_rd=0.98:0.04 / mixed_ref=1 / me_range=48 / chroma_me=1 / trellis=2 / 8x8dct=1 / cqm=0 / deadzone=21,11 / fast_pskip=1 / chroma_qp_offset=-3 / threads=6 / lookahead_threads=1 / sliced_threads=0 / nr=0 / decimate=1 / interlaced=0 / bluray_compat=0 / constrained_intra=0 / bframes=11 / b_pyramid=2 / b_adapt=2 / b_bias=0 / direct=3 / weightb=1 / open_gop=0 / weightp=2 / keyint=240 / keyint_min=23 / scenecut=40 / intra_refresh=0 / rc_lookahead=40 / rc=2pass / mbtree=0 / bitrate=1834 / ratetol=1.0 / qcomp=0.60 / qpmin=0 / qpmax=69 / qpstep=4 / cplxblur=20.0 / qblur=0.5 / vbv_maxrate=50000 / vbv_bufsize=62500 / nal_hrd=none / filler=0 / ip_ratio=1.40 / pb_ratio=1.30 / aq=1:1.00
Язык : English
Default : Да
Forced : Нет

Аудио #1
Идентификатор : 2
Формат : AC-3
Формат/Информация : Audio Coding 3
Расширение режима : CM (complete main)
Параметр Endianness формата : Big
Идентификатор кодека : A_AC3
Продолжительность : 1 ч. 51 м.
Вид битрейта : Постоянный
Битрейт : 192 Кбит/сек
Каналы : 2 канала
Расположение каналов : Front: L R
Частота : 48,0 КГц
Частота кадров : 31,250 кадров/сек (1536 spf)
Битовая глубина : 16 бит
Метод сжатия : С потерями
Размер потока : 153 Мбайт (8%)
Заголовок : MVO [HDRezka Studio]
Язык : Russian
Default : Да
Forced : Нет

Аудио #2
Идентификатор : 3
Формат : AC-3
Формат/Информация : Audio Coding 3
Расширение режима : CM (complete main)
Параметр Endianness формата : Big
Идентификатор кодека : A_AC3
Продолжительность : 1 ч. 51 м.
Вид битрейта : Постоянный
Битрейт : 448 Кбит/сек
Каналы : 6 каналов
Расположение каналов : Front: L C R, Side: L R, LFE
Частота : 48,0 КГц
Частота кадров : 31,250 кадров/сек (1536 spf)
Битовая глубина : 16 бит
Метод сжатия : С потерями
Размер потока : 357 Мбайт (18%)
Заголовок : [Original]
Язык : English
Default : Нет
Forced : Нет

Текст #1
Идентификатор : 4
Формат : UTF-8
Идентификатор кодека : S_TEXT/UTF8
Идентификатор кодека/Информация : UTF-8 Plain Text
Продолжительность : 1 ч. 50 м.
Битрейт : 52 бит/сек
Count of elements : 1486
Размер потока : 42,8 Кбайт (0%)
Заголовок : Full
Язык : English
Default : Нет
Forced : Нет

Текст #2
Идентификатор : 5
Формат : UTF-8
Идентификатор кодека : S_TEXT/UTF8
Идентификатор кодека/Информация : UTF-8 Plain Text
Продолжительность : 1 ч. 51 м.
Битрейт : 77 бит/сек
Count of elements : 1663
Размер потока : 62,9 Кбайт (0%)
Заголовок : SDH
Язык : English
Default : Нет
Forced : Нет

Меню
00:00:00.000 : :Capítulo 01
00:07:10.639 : :Capítulo 02
00:13:30.726 : :Capítulo 03
00:20:51.166 : :Capítulo 04
00:28:07.519 : :Capítulo 05
00:34:20.767 : :Capítulo 06
00:41:30.154 : :Capítulo 07
00:50:19.183 : :Capítulo 08
00:56:21.253 : :Capítulo 09
01:03:19.671 : :Capítulo 10
01:09:58.194 : :Capítulo 11
01:18:15.107 : :Capítulo 12
01:25:13.567 : :Capítulo 13
01:32:08.106 : :Capítulo 14
01:37:35.725 : :Capítulo 15
01:45:08.302 : :Capítulo 16

pb.wtf



Скачать Господь, благослови этот извилистый путь через торрент https://i84.fastpic.ru/big/2019/0124/d1/72c5b3e8b340f702ee56ab6ac31be7d1.jpg Скачать фильм Господь, благослови этот извилистый путь через торрент бесплантно в хорошем качестве Описание: Привычный мир Эмбер рушится после известия о том, что ее муж погиб во время службы в Афганистане. Трагедия изменила все в ее ... 10 10 4
Торрент: Зарегистрирован [2019-01-24 14:51] · скачан: 64 раз
Статус: T временная
Размер: 1.93 GB
Как cкачать? Как скачать Господь, благослови этот извилистый путь через торрент | qTorrent

% Раздел Тема Автор DL S | L
Фильмы (Blu-ray, BD-Remux, HDDVD) [ 29.96 GB ] Господь благослови этот извилистый путь / God Bless the Broken Road [2018 BDRemux 1080p] [MVO] killermax2013 Скачать
1 | 0
T Фильмы [HD 720p, 1080p] (Хороший звук DUB, MVO) [ 10.39 GB ] Господь благослови этот извилистый путь / God Bless the Broken Road [2018 BDRip 1080p] MVO [HDRezka Studio] bober100 Скачать
1 | 0

28-11-2019 20:33  

Отключить всю рекламу на сайте

    Дорогой пользователь! Огромная просьба, поблагодарите релизера, оцените раздачу и оставьте свои комментарий, если Вы скачали Господь, благослови этот извилистый путь через торрент бесплатно! Внесите свою лепту в развитие PiratBit!
    Комментировать посты могут только пользователи прошедшие не сложную регистрацию
    Показать сообщения:    

    Господь, благослови этот извилистый путь через торрент
    Скачать бесплатно Господь, благослови этот извилистый путь
    Господь, благослови этот извилистый путь скачать торрент
    Господь, благослови этот извилистый путь смотреть онлайн
    Cкачать фильм Господь, благослови этот извилистый путь бесплатно
    Господь, благослови этот извилистый путь скачать торрент в хорошем качестве
    Господь, благослови этот извилистый путь смотреть онлайн бесплатно в хорошем качестве


    Вы не можете начинать темы
    Вы не можете отвечать на сообщения
    Вы не можете редактировать свои сообщения
    Вы не можете удалять свои сообщения
    Вы не можете голосовать в опросах
    Вы не можете прикреплять файлы к сообщениям
    Вы можете скачивать файлы