Ссылка на приватное зеркало нашего сайта всего за 1$. Внимание количество ограничено!!!

2 сезон

iTunes

1 сезон

1

2 сезон

2 сезон

iTunes

1 сезон

RePack

30

Новинка

ВАЖНО

ИГРА 18+

pack

RePack

MK11
pack

Забери бонус

RePack

jed

!!Акция!!

Alien_Rage

RePack

fifa19

RePack

Assassins Creed: Odyssey

RePack

NEED FOR SPEED™ PAYBACK

4 сезон

9 сезон

Бесстыжие 9 сезон

Все сериалы

все сериалы на PB.wtf

RePack

FAR CRY 5
  

Падение Ордена / Knightfall / Сезон: 1 / Серии: 1-10 из 10 (Дуглас Маккиннон, Метин Хусейн, Дэвид Петрарка) [2017, боевик, драма, военный, приключения, WEBRip 1080p] MVO [NewStudio] pb.wtf

Падение Ордена через торрент pb.wtf

Размер: 40.29 GB | Добавлен: 1 год 10 мес. назад | Торрент скачан:27 раз
Скачать  

24-01-2019 15:13 Падение Ордена Скачать торрент  

Падение Ордена / KnightfallИнформация о фильме:

Название: Падение Ордена
Оригинальное название: Knightfall
Год выпуска: 2017 (1 сезон)
Страна: США / A+E Studios, Midnight Radio, Stillking Films
Жанр: боевик, драма, военный, приключения
Продолжительность: ~ 00:43:00 серия
Перевод: Профессиональный многоголосый |
Субтитры: Английские
✦ Примечание: Без рекламы!

✦ Режиссер: Дуглас Маккиннон, Метин Хусейн, Дэвид Петрарка

rating


В ролях:

Том Каллен, Падрейк Делани, Саймон Мерреллс, Оливия Росс, Джулиан Овенден, Эд Стоппард, Сабрина Бартлетт, Бобби Шофилд, Сара-Софи Бусснина, Нассер Мемарзиа и др.

Информация о файле:

Качество: WEBRip 1080p
Формат: MKV

Видео: ~ 12.5 Mbps, 1920x1080 (16:9), 23.976 fps
Аудио#1 RUS: AC3, 48 KHz, 2 ch, 192 kbps
Аудио#2 ENG: AC3, 48 KHz, 2 ch, 224 kbps - 1-7,9 серии
Аудио#3 ENG: AAC, 48 KHz, 2 ch, 128 kbps - 8 серия


скриншот  скриншот  скриншот  скриншот  

Общее
Уникальный идентификатор : 191792064269704925461181340770664214526 (0x9049CED6F1B02C33B98941DCB9F06FFE)
Полное имя : D:\Knightfall.s01.1080p.NewStudio.Wanterlude\Knightfall.s01e01.1080p.NewStudio.Wanterlude.mkv
Формат : Matroska
Версия формата : Version 4 / Version 2
Размер файла : 3,97 Гбайт
Продолжительность : 44 м. 26 с.
Режим общего битрейта : Переменный
Общий поток : 12,8 Мбит/сек
Название фильма : Knightfall | Ep 01 | NewStudio
Дата кодирования : UTC 2017-12-12 12:33:21
Программа кодирования : mkvmerge v17.0.0 ('Be Ur Friend') 64-bit
Библиотека кодирования : libebml v1.3.5 + libmatroska v1.4.8

Видео
Идентификатор : 1
Формат : AVC
Формат/Информация : Advanced Video Codec
Профиль формата : High@L4
Параметр CABAC формата : Да
Параметр RefFrames формата : 4 кадра
Идентификатор кодека : V_MPEG4/ISO/AVC
Продолжительность : 44 м. 26 с.
Вид битрейта : Переменный
Битрейт : 12,3 Мбит/сек
Максимальный битрейт : 15,0 Мбит/сек
Ширина : 1920 пикселей
Высота : 1080 пикселей
Соотношение сторон : 16:9
Режим частоты кадров : Постоянный
Частота кадров : 23,976 (24000/1001) кадра/сек
Цветовое пространство : YUV
Субдискретизация насыщенности : 4:2:0
Битовая глубина : 8 бит
Тип развёртки : Прогрессивная
Бит/(Пиксели*Кадры) : 0.244
Размер потока : 3,76 Гбайт (95%)
Заголовок : Knightfall | Ep 01 | NewStudio
Язык : English
Default : Да
Forced : Нет
Цветовой диапазон : Limited
Основные цвета : BT.709
Характеристики трансфера : BT.709
Коэффициенты матрицы : BT.709

Аудио #1
Идентификатор : 2
Формат : AC-3
Формат/Информация : Audio Coding 3
Расширение режима : CM (complete main)
Параметр Endianness формата : Big
Идентификатор кодека : A_AC3
Продолжительность : 44 м. 26 с.
Вид битрейта : Постоянный
Битрейт : 192 Кбит/сек
Каналы : 2 канала
Расположение каналов : Front: L R
Частота : 48,0 КГц
Частота кадров : 31,250 кадров/сек (1536 spf)
Метод сжатия : С потерями
Размер потока : 61,0 Мбайт (2%)
Заголовок : NewStudio | Wanterlude
Язык : Russian
Default : Да
Forced : Нет

Аудио #2
Идентификатор : 3
Формат : E-AC-3
Формат/Информация : Audio Coding 3
Параметр Endianness формата : Big
Идентификатор кодека : A_EAC3
Продолжительность : 44 м. 26 с.
Вид битрейта : Постоянный
Битрейт : 224 Кбит/сек
Каналы : 2 канала
Расположение каналов : Front: L R
Частота : 48,0 КГц
Частота кадров : 187,500 кадров/сек (256 spf)
Метод сжатия : С потерями
Размер потока : 71,2 Мбайт (2%)
Язык : English
Default : Нет
Forced : Нет

Текст
Идентификатор : 4
Формат : UTF-8
Идентификатор кодека : S_TEXT/UTF8
Идентификатор кодека/Информация : UTF-8 Plain Text
Язык : English
Default : Нет
Forced : Нет

pb.wtf



Скачать Падение Ордена через торрент http://i97.fastpic.ru/big/2017/1205/7e/25eeef13343184f4825de4e6ea57ed7e.png Скачать фильм Падение Ордена через торрент бесплантно в хорошем качестве В ролях: Том Каллен, Падрейк Делани, Саймон Мерреллс, Оливия Росс, Джулиан Овенден, Эд Стоппард, Сабрина Бартлетт, Бобби Шофилд, Сара-Софи ... 10 10 4
Info! Золотая раздача, скачанное не засчитывается.
Торрент: Зарегистрирован [2019-01-24 15:13] · скачан: 27 раз
Статус: √ проверено
Размер: 40.29 GB
Как cкачать? Как скачать Падение Ордена через торрент | qTorrent

% Раздел Тема Автор DL S | L
Зарубежные сериалы [ 19.31 GB ] Падение Ордена / Knightfall / Сезон: 2 / Серии: 1-8 из 8 [2019 исторический WEB-DL 1080p] 2x[MVO] killermax2013 Скачать
1 | 0
Зарубежные сериалы [ 9.64 GB ] Падение Ордена / Knightfall / Сезон: 2 / Серии: 1-4 из 10 [2019 военный WEB-DL 1080p] MVO [TVShows] bober100 Скачать
1 | 0
Зарубежные сериалы [ 13.92 GB ] Падение Ордена / Knightfall / Сезон: 1 / Серии: 1-10 из 10 [2017 военный WEBRip 720p] MVO [Jaskier] bober100 Скачать
1 | 0
Зарубежные сериалы [ 5.52 GB ] Падение Ордена / Knightfall / Сезон 1 / Серия 1-10 из 10 [2017 WEBRip] [MVO] killermax2013 Скачать
1 | 0
Зарубежные сериалы [ 40.49 GB ] Падение Ордена / Knightfall / Сезон: 1 / Серии 1-10 из 10 [2017 военный WEBRip 1080p] MVO [Jaskier] bober100 Скачать
1 | 0
Зарубежные сериалы [ 6.47 GB ] Падение Ордена / Knightfall / Сезон 1 / Серия 1-10 из 10 [2017 WEBRip] [MVO] [AlexFilm] killermax2013 Скачать
1 | 0

28-11-2019 20:33  

Отключить всю рекламу на сайте

    Дорогой пользователь! Огромная просьба, поблагодарите релизера, оцените раздачу и оставьте свои комментарий, если Вы скачали Падение Ордена через торрент бесплатно! Внесите свою лепту в развитие PiratBit!
    Комментировать посты могут только пользователи прошедшие не сложную регистрацию
    Показать сообщения:    

    Падение Ордена через торрент
    Скачать бесплатно Падение Ордена
    Падение Ордена скачать торрент
    Падение Ордена смотреть онлайн
    Cкачать фильм Падение Ордена бесплатно
    Падение Ордена скачать торрент в хорошем качестве
    Падение Ордена смотреть онлайн бесплатно в хорошем качестве


    Вы не можете начинать темы
    Вы не можете отвечать на сообщения
    Вы не можете редактировать свои сообщения
    Вы не можете удалять свои сообщения
    Вы не можете голосовать в опросах
    Вы не можете прикреплять файлы к сообщениям
    Вы можете скачивать файлы