Ссылка на приватное зеркало нашего сайта всего за 1$. Внимание количество ограничено!!!

2 сезон

iTunes

1 сезон

1

2 сезон

2 сезон

iTunes

1 сезон

RePack

30

Ultimate

ВАЖНО

ИГРА 18+

pack

RePack

MK11
pack

Забери бонус

RePack

jed

!!Акция!!

Alien_Rage

RePack

fifa19

RePack

Assassins Creed: Odyssey

RePack

NEED FOR SPEED™ PAYBACK

4 сезон

9 сезон

Бесстыжие 9 сезон

Все сериалы

все сериалы на PB.wtf

RePack

FAR CRY 5
  

Секретные материалы / The X-Files / Сезон: 11 / Серии 1-10 из 10 (Крис Картер, Дэрин Морган,Glen Morgan) [2018, США, фантастика, триллер, драма, WEBRip 1080p, WEB-DL 1080p] MVO [BaibaKo] pb.wtf

Секретные материалы через торрент pb.wtf

Качают: 1 [ 0 KB/s ]
Размер: 26.51 GB | Добавлен: 1 год 10 мес. назад | Торрент скачан:3 раза
Скачать  

05-01-2018 01:16 Секретные материалы Скачать торрент  


Секретные материалы / The X-Files

«Истина все еще где-то рядом»


  • Год выпуска: 2018
  • Страна: США
  • Жанр: фантастика, триллер, драма, детектив
  • Продолжительность: ~ 00:43:00 (Серия)
  • Перевод: Профессиональный многоголосый закадровый [BaibaKo]
  • Режиссер: Крис Картер / Chris Carter, Дэрин Морган / Darin Morgan, Глен Морган / Glen Morgan
  • В ролях:

    Дэвид Духовны (Fox Mulder), Джиллиан Андерсон (Dana Scully), Митч Пилледжи (Walter Skinner), Уильям Б. Дэвис (Smoking Man), Робби Амелл (Agent Miller), Джоэл МакХэйл (Tad O'Malley), Эндрю Моргадо (Charlie Scully), Лорен Эмброуз (Agent Einstein), Гардинер Миллар (Man in Suit), Ализа Веллани (Sandeep), Даниэла Диб (Mulders Dance Partner), Шейла Ларкен (Margaret Scully)


  • Специальные агенты ФБР, Фокс Малдер и Дана Скалли, снова работают вместе, чтобы расследовать странные и необъяснимые дела, связанные с паранормальными явлениями.
  • Рейтинг:

    rating
  • Качество: WEBRip 1080p, WEB-DL 1080p
  • Формат: :MKV
  • Видео кодек: AVC
  • Аудио кодек: AC-3
  • Видео: 12,2 Мбит/сек, 1920*1080 (16:9), в 23,976 (24000/1001) кадра/сек, AVC
  • Аудио №1: русский 640 Кбит/сек, 48,0 КГц, 16 бит, 6 каналов, AC-3 |[BaibaKo]|
  • Аудио №2: английский 640 Кбит/сек, 48,0 КГц, 16 бит, 6 каналов, AC-3
  • Релиз от: GEKADOL

    Внимание! Раздача ведётся путём добавления новых серий; при каждом добавлении создаётся новый торрент. Чтобы начать докачку новой серии, пользователям необходимо сделать следующее:
    (1) остановить скачивание,
    (2) удалить старый торрент у себя из клиента (старые серии удалять не надо),
    (3) скачать новый торрент и запустить его у себя в клиенте вместо старого, при этом указать клиенту путь в старую папку куда и должно происходить скачивание новых серий.
    Ваш клиент при этом должен произвести хеширование (проверку) старой папки (если не производит сам - помогите ему сделать это), и будет докачивать только те серии которых у вас ещё нет. Старые серии при этом не удаляются, а продолжают раздаваться!
    Eсли вы уже удалили старые серии, то предотвратить повторную закачку старых серий можно, отжав галочку в соответствующих местах при запуске нового торрента. По возможности, желательно не удалять старые серии как можно дольше чтобы релизёр не столько продолжал раздавать старые серии, а смог сконцентрироваться на новых.
    Общее
    Уникальный идентификатор : 284608420607594558411988494014735051240 (0xD61D96850643CFD053407F655B2DE9E8)
    Полное имя : F:\Секретные материалы (The X-Files)\The.X-Files.s11e01.HD1080p.WEBRip.Rus.Eng.BaibaKo.tv.mkv
    Формат : Matroska
    Версия формата : Version 4 / Version 2
    Размер файла : 3,90 Гбайт
    Продолжительность : 41 м. 24 с.
    Режим общего битрейта : Переменный
    Общий поток : 13,5 Мбит/сек
    Дата кодирования : UTC 2018-01-05 00:59:30
    Программа кодирования : mkvmerge v19.0.0 ('Brave Captain') 64-bit
    Библиотека кодирования : libebml v1.3.5 + libmatroska v1.4.8

    Видео
    Идентификатор : 1
    Формат : AVC
    Формат/Информация : Advanced Video Codec
    Профиль формата : High@L4
    Настройки формата : CABAC / 4 Ref Frames
    Параметр CABAC формата : Да
    Параметр RefFrames формата : 4 кадра
    Идентификатор кодека : V_MPEG4/ISO/AVC
    Продолжительность : 41 м. 24 с.
    Вид битрейта : Переменный
    Битрейт : 12,2 Мбит/сек
    Максимальный битрейт : 15,0 Мбит/сек
    Ширина : 1920 пикселей
    Высота : 1080 пикселей
    Соотношение сторон : 16:9
    Режим частоты кадров : Постоянный
    Частота кадров : 23,976 (24000/1001) кадра/сек
    Цветовое пространство : YUV
    Субдискретизация насыщенности : 4:2:0
    Битовая глубина : 8 бит
    Тип развёртки : Прогрессивная
    Бит/(Пиксели*Кадры) : 0.245
    Размер потока : 3,53 Гбайт (90%)
    Default : Нет
    Forced : Нет
    Цветовой диапазон : Limited
    Основные цвета : BT.709
    Характеристики трансфера : BT.709
    Коэффициенты матрицы : BT.709

    Аудио #1
    Идентификатор : 2
    Формат : AC-3
    Формат/Информация : Audio Coding 3
    Идентификатор кодека : A_AC3
    Продолжительность : 41 м. 24 с.
    Вид битрейта : Постоянный
    Битрейт : 640 Кбит/сек
    Каналы : 6 каналов
    Расположение каналов : Front: L C R, Side: L R, LFE
    Частота : 48,0 КГц
    Частота кадров : 31,250 кадров/сек (1536 SPF)
    Битовая глубина : 16 бит
    Метод сжатия : С потерями
    Задержка видео : 7 мс.
    Размер потока : 190 Мбайт (5%)
    Язык : Russian
    ServiceKind/String : Complete Main
    Default : Да
    Forced : Нет

    Аудио #2
    Идентификатор : 3
    Формат : AC-3
    Формат/Информация : Audio Coding 3
    Идентификатор кодека : A_AC3
    Продолжительность : 41 м. 24 с.
    Вид битрейта : Постоянный
    Битрейт : 640 Кбит/сек
    Каналы : 6 каналов
    Расположение каналов : Front: L C R, Side: L R, LFE
    Частота : 48,0 КГц
    Частота кадров : 31,250 кадров/сек (1536 SPF)
    Битовая глубина : 16 бит
    Метод сжатия : С потерями
    Задержка видео : 11 мс.
    Размер потока : 190 Мбайт (5%)
    Язык : English
    ServiceKind/String : Complete Main
    Default : Нет
    Forced : Нет



    Скриншоты:
    скриншот   скриншот   скриншот   скриншот   скриншот   скриншот   скриншот  
    скриншот  

    Раздача ведётся путём добавления новых серий. Добавлена 10 серия (22.03.2018).Просьба перекачать торрент файл.

    pb.wtf



  • Скачать Секретные материалы через торрент http://pic1.kartinco.top/images/11/95rf3.jpg Скачать фильм Секретные материалы через торрент бесплантно в хорошем качестве qw.png Специальные агенты ФБР, Фокс Малдер и Дана Скалли, снова работают вместе, чтобы расследовать странные и необъяснимые дела, ... 8.8 10 15
    Торрент: Зарегистрирован [2019-01-24 15:45] · скачан: 3 раз
    Статус: √ проверено
    Размер: 26.51 GB
    Как cкачать? Как скачать Секретные материалы через торрент | qTorrent

    % Раздел Тема Автор DL S | L
    Зарубежные сериалы [ 5.41 GB ] Секретные материалы / The X-Files / Сезон: 11 / Серии: 1-10 из 10 [2018 WEB-DLRip] MVO [LostFilm] bober100 Скачать
    1 | 0
    Зарубежные сериалы [ 5.59 GB ] Секретные материалы / The X-Files / Сезон 11 / Серия 1-10 из 10 [2018 WEBRip] [MVO] [голоса ОРТ и RenTv] killermax2013 Скачать
    1 | 0
    Зарубежные сериалы [ 35.99 GB ] Секретные материалы / The X-Files / Сезон 11 / Серия 1-10 из 10 [2018 WEBRip 1080p] [MVO] [голоса ОРТ и RenTv] killermax2013 Скачать
    1 | 0
    Зарубежные сериалы [ 11.48 GB ] Секретные материалы / The X-Files / Сезон 11 / Серия 1-10 из 10 [2018 WEBRip 720p] [MVO] [голоса ОРТ и RenTv] killermax2013 Скачать
    1 | 0
    Зарубежные сериалы [ 12.71 GB ] Секретные материалы / The X-Files / Сезон: 11 / Серии: 1-10 из 10 [2018 WEBRip 720p] MVO [Profix Media] bober100 Скачать
    1 | 0
    Зарубежные сериалы [ 8.61 GB ] Секретные материалы / The X-Files / Сезон: 11 / Серии: 1-10 из 10 [2018 HDTVRip 720p] DVO [SunshineStudio] bober100 Скачать
    1 | 0
    Зарубежные сериалы [ 4.56 GB ] Секретные материалы / The X-Files / Сезон 11 / Серия 1-9 из 10 [2018 WEBRip] [MVO] killermax2013 Скачать
    1 | 0

    28-11-2019 20:33  

    Отключить всю рекламу на сайте

      Дорогой пользователь! Огромная просьба, поблагодарите релизера, оцените раздачу и оставьте свои комментарий, если Вы скачали Секретные материалы через торрент бесплатно! Внесите свою лепту в развитие PiratBit!
      Комментировать посты могут только пользователи прошедшие не сложную регистрацию
      Показать сообщения:    

      Секретные материалы через торрент
      Скачать бесплатно Секретные материалы
      Секретные материалы скачать торрент
      Секретные материалы смотреть онлайн
      Cкачать фильм Секретные материалы бесплатно
      Секретные материалы скачать торрент в хорошем качестве
      Секретные материалы смотреть онлайн бесплатно в хорошем качестве


      Вы не можете начинать темы
      Вы не можете отвечать на сообщения
      Вы не можете редактировать свои сообщения
      Вы не можете удалять свои сообщения
      Вы не можете голосовать в опросах
      Вы не можете прикреплять файлы к сообщениям
      Вы можете скачивать файлы