Ссылка на приватное зеркало нашего сайта всего за 1$. Внимание количество ограничено!!!

2 сезон

iTunes

1 сезон

1

2 сезон

2 сезон

iTunes

1 сезон

RePack

30

Ultimate

ВАЖНО

ИГРА 18+

pack

RePack

MK11
pack

Забери бонус

RePack

jed

!!Акция!!

Alien_Rage

RePack

fifa19

RePack

Assassins Creed: Odyssey

RePack

NEED FOR SPEED™ PAYBACK

4 сезон

9 сезон

Бесстыжие 9 сезон

Все сериалы

все сериалы на PB.wtf

RePack

FAR CRY 5
  

Каратель / The Punisher / Сезон: 2 / Серии: 1-13 из 13 (Салли Ричардсон-Уитфилд, Джереми Уэбб) [2019, фантастика, боевик, триллер, драма, криминал, приключения, WEBRip 1080p] [MVO] (NewStudio) pb.wtf

Каратель через торрент pb.wtf

Размер: 23.53 GB | Добавлен: 1 год 9 мес. назад | Торрент скачан:95 раз
Скачать  

24-01-2019 16:48 Каратель Скачать торрент  

Каратель | The Punisher
Год выпуска: 2019
Страна: США | ABC Studios, Disney-ABC Domestic Television
Жанр: Фантастика, боевик, триллер, драма, криминал
Продолжительность: ~00:55:00
Перевод: Профессиональный (многоголосый закадровый) | NewStudio*
Режиссёр: Энди Годдард, Том Шенклэнд, Антонио Кампос
В ролях: Бен Барнс, Джон Бернтал, Джейсон Р. Мур, Эбон Мосс-Бакрак, Майкл Натансон, Джейми Рэй Ньюман, Эмбер Роуз Рева, Пол Шульц, Даниэль Уэббер, Дебора Энн Уолл, Коби Фрумер, Рипли Собо и др.
Описание: После того, как семья Фрэнка Касла была убита во время перестрелки нескольких банд Нью-Йорка, он решает отомстить и начинает охоту на преступников города. В преступном мире он становится известен как Каратель.

скриншот  

» Сборкой и очисткой от рекламы занимался: Wanterlude

Качество: WEBRip 1080p
Формат: MKV
Видео: AVC, 1920х1080 (16:9), 23.976 fps, ~ ~ 3500 Кбит/с
Аудио №1: AC3, 6 ch, 48 kHz, 384 kbps | NewStudio*
Аудио №2: E-AC3, 6 ch, 48 kHz, 448 kbps | Original
Субтитры: Русские (Forced, Full), английские (Full)
* присутствует ненормативная лексика!
General
Unique ID : 248008464793395664848600531306648329166 (0xBA94B160A1590634A3FD0814A6865BCE)
Complete name : F:\Marvels.The.Punisher.S02.1080p.NewStudio.(Wanterlude)\Marvels.The.Punisher.S02E01.NewStudio.(Wanterlude).mkv
Format : Matroska
Format version : Version 4 / Version 2
File size : 1.56 GiB
Duration : 53 min 9 s
Overall bit rate mode : Variable
Overall bit rate : 4 207 kb/s
Movie name : The Punisher | Ep 01 | NewStudio
Encoded date : UTC 2019-01-24 16:20:42
Writing application : mkvmerge v30.1.0 ('Forever And More') 64-bit
Writing library : libebml v1.3.6 + libmatroska v1.4.9

Video
ID : 1
Format : AVC
Format/Info : Advanced Video Codec
Format profile : Main@L4
Format settings : CABAC / 3 Ref Frames
Format settings, CABAC : Yes
Format settings, RefFrames : 3 frames
Codec ID : V_MPEG4/ISO/AVC
Duration : 53 min 9 s
Bit rate mode : Variable
Bit rate : 3 291 kb/s
Nominal bit rate : 3 480 kb/s
Maximum bit rate : 5 220 kb/s
Width : 1 920 pixels
Height : 1 080 pixels
Display aspect ratio : 16:9
Frame rate mode : Constant
Frame rate : 23.976 (24000/1001) FPS
Color space : YUV
Chroma subsampling : 4:2:0
Bit depth : 8 bits
Scan type : Progressive
Bits/(Pixel*Frame) : 0.066
Stream size : 1.22 GiB (78%)
Title : The Punisher | Ep 01 | NewStudio
Writing library : x264 core 148 r2715 7e75228
Encoding settings : cabac=1 / ref=3 / deblock=1:0:0 / analyse=0x1:0x111 / me=umh / subme=10 / psy=1 / psy_rd=1.00:0.00 / mixed_ref=1 / me_range=24 / chroma_me=1 / trellis=2 / 8x8dct=0 / cqm=0 / deadzone=21,11 / fast_pskip=1 / chroma_qp_offset=-2 / threads=6 / lookahead_threads=1 / sliced_threads=0 / nr=0 / decimate=1 / interlaced=0 / bluray_compat=0 / stitchable=1 / constrained_intra=0 / bframes=2 / b_pyramid=0 / b_adapt=2 / b_bias=0 / direct=3 / weightb=1 / open_gop=0 / weightp=2 / keyint=48 / keyint_min=25 / scenecut=0 / intra_refresh=0 / rc_lookahead=48 / rc=2pass / mbtree=1 / bitrate=3480 / ratetol=1.0 / qcomp=0.50 / qpmin=6 / qpmax=51 / qpstep=4 / cplxblur=20.0 / qblur=0.5 / vbv_maxrate=5220 / vbv_bufsize=6960 / nal_hrd=vbr / filler=0 / ip_ratio=1.40 / aq=1:1.00
Language : English
Default : Yes
Forced : No

Audio #1
ID : 2
Format : AC-3
Format/Info : Audio Coding 3
Format settings, Endianness : Big
Codec ID : A_AC3
Duration : 53 min 9 s
Bit rate mode : Constant
Bit rate : 384 kb/s
Channel(s) : 6 channels
Channel positions : Front: L C R, Side: L R, LFE
Sampling rate : 48.0 kHz
Frame rate : 31.250 FPS (1536 SPF)
Bit depth : 16 bits
Compression mode : Lossy
Stream size : 146 MiB (9%)
Title : NewStudio | Wanterlude
Language : Russian
Service kind : Complete Main
Default : Yes
Forced : Yes

Audio #2
ID : 3
Format : E-AC-3
Format/Info : Enhanced Audio Coding 3
Format profile : E-AC-3+Atmos / E-AC-3
Format settings, Endianness : Big
Codec ID : A_EAC3
Duration : 53 min 9 s
Bit rate mode : Constant
Bit rate : 448 kb/s
Channel(s) : 15 objects / 6 channels
Channel positions : 15 objects / Front: L C R, Side: L R, LFE
Sampling rate : 48.0 kHz
Frame rate : 187.500 FPS (256 SPF)
Compression mode : Lossy
Stream size : 170 MiB (11%)
Title : English
Language : English
Service kind : Complete Main
Default : No
Forced : No

Text #1
ID : 4
Format : ASS
Codec ID : S_TEXT/ASS
Codec ID/Info : Advanced Sub Station Alpha
Compression mode : Lossless
Title : Russian [Forced]
Language : Russian
Default : Yes
Forced : Yes

Text #2
ID : 5
Format : UTF-8
Codec ID : S_TEXT/UTF8
Codec ID/Info : UTF-8 Plain Text
Title : Russian [Full]
Language : Russian
Default : No
Forced : No

Text #3
ID : 6
Format : UTF-8
Codec ID : S_TEXT/UTF8
Codec ID/Info : UTF-8 Plain Text
Title : English
Language : English
Default : No
Forced : No
скриншот  скриншот  скриншот  
Когда раздача ведётся путём добавления новых серий, при каждом добавлении создётся новый торрент. Чтобы начать докачку новой серии, пользователям необходимо сделать следующее:
(1) остановить скачивание,
(2) удалить старый торрент у себя из клиента (старые серии удалять не надо),
(3) скачать новый торрент и запустить его у себя в клиенте вместо старого, при этом указать клиенту путь в старую папку, куда и должно происходить скачивание новых серий.
Ваш клиент при этом должен произвести хеширование (проверку) старой папки (если не производит сам - помогите ему сделать это), и будет докачивать только те серии, которых у вас ещё нет. Старые серии при этом не удаляются, а продолжают раздаваться!
Eсли вы уже удалили старые серии, то предотвратить повторную закачку старых серий можно, отжав галочку в соответсвующих местах при запуске нового торрента. По возможности, желательно не удалять старые серии как можно дольше, чтобы релизёр не столько продолжал раздавать старые серии, а смог сконцентрироваться на новых.
pb.wtf



Скачать Каратель через торрент https://d.radikal.ru/d23/1901/d0/732dd5d7d2e7.png Скачать фильм Каратель через торрент бесплантно в хорошем качестве Описание: После того, как семья Фрэнка Касла была убита во время перестрелки нескольких банд Нью-Йорка, он решает отомстить и начинает ... 10 10 6
Info! Золотая раздача, скачанное не засчитывается.
Торрент: Зарегистрирован [2019-02-05 13:03] · скачан: 95 раз
Статус: √ проверено
Размер: 23.53 GB
Как cкачать? Как скачать Каратель через торрент | qTorrent

% Раздел Тема Автор DL S | L
Зарубежные сериалы [ 14.6 GB ] Каратель / The Punisher / Сезон: 2 / Серии: 1-13 из 13 [2019 WEB-DL 720p] [DVO] killermax2013 Скачать
1 | 1
Зарубежные сериалы [ 29.1 GB ] Каратель / The Punisher / Сезон: 2 / Серии: 1-13 из 13 [2019 WEBRip 1080p] [MVO] killermax2013 Скачать
1 | 0
Зарубежные сериалы [ 12.44 GB ] Каратель / The Punisher / Сезон: 2 / Серии: 1-13 из 13 [2019 WEB-DL 720p] MVO [NewStudio] bober100 Скачать
2 | 0
Зарубежные сериалы [ 12.14 GB ] Каратель / The Punisher / Сезон: 2 / Серии: 1-13 из 13 [2019 WEBRip 720p] MVO [Baibako] bober100 Скачать
2 | 0
Зарубежные сериалы [ 23.29 GB ] Каратель / The Punisher / Сезон: 2 / Серии: 1-13 из 13 [2019 WEB-DL 1080p] MVO [Jaskier] bober100 Скачать
1 | 0
Зарубежные сериалы [ 12.19 GB ] Каратель / The Punisher / Сезон: 2 / Серии: 1-13 из 13 [2019 WEB-DL 720p] MVO [Jaskier] bober100 Скачать
1 | 0
Зарубежные сериалы [ 9.92 GB ] Каратель / The Punisher / Сезон: 2 / Серии: 1-13 из 13 [2019 WEB-DLRip] MVO [Jaskier] bober100 Скачать
1 | 0


Последний раз редактировалось: killermax2013 (2019-02-01 19:19), всего редактировалось 2 раз(а)

28-11-2019 20:33  

Отключить всю рекламу на сайте

25-01-2019 15:58 Каратель Скачать торрент  

огромная благодарность этому человеку:Сборкой и очисткой от рекламы занимался: Wanterlude,а так же релизёру handshakepb.wtf



01-02-2019 19:50 Каратель Скачать торрент  

Wanterlude и killermax2013 огромная Благодарность за труды!!))pb.wtf



    Дорогой пользователь! Огромная просьба, поблагодарите релизера, оцените раздачу и оставьте свои комментарий, если Вы скачали Каратель через торрент бесплатно! Внесите свою лепту в развитие PiratBit!
    Комментировать посты могут только пользователи прошедшие не сложную регистрацию
    Показать сообщения:    

    Каратель через торрент
    Скачать бесплатно Каратель
    Каратель скачать торрент
    Каратель смотреть онлайн
    Cкачать фильм Каратель бесплатно
    Каратель скачать торрент в хорошем качестве
    Каратель смотреть онлайн бесплатно в хорошем качестве


    Вы не можете начинать темы
    Вы не можете отвечать на сообщения
    Вы не можете редактировать свои сообщения
    Вы не можете удалять свои сообщения
    Вы не можете голосовать в опросах
    Вы не можете прикреплять файлы к сообщениям
    Вы можете скачивать файлы