Ссылка на приватное зеркало нашего сайта всего за 1$. Внимание количество ограничено!!!

2 сезон

iTunes

1 сезон

1

2 сезон

2 сезон

iTunes

1 сезон

RePack

30

Новинка

ВАЖНО

ИГРА 18+

pack

RePack

MK11
pack

Забери бонус

RePack

jed

!!Акция!!

Alien_Rage

RePack

fifa19

RePack

Assassins Creed: Odyssey

RePack

NEED FOR SPEED™ PAYBACK

4 сезон

9 сезон

Бесстыжие 9 сезон

Все сериалы

все сериалы на PB.wtf

RePack

FAR CRY 5
  

Захочу и соскочу. Супергерои / Smetto quando voglio: Ad honorem (Сидней Сибилиа) [2017, боевик, комедия, BDRemux 1080p] [MVO] [iTunes] pb.wtf

Захочу и соскочу. Супергерои через торрент pb.wtf

Размер: 22.88 GB | Добавлен: 1 год 10 мес. назад | Торрент скачан:13 раз
Скачать  

24-01-2019 18:40 Захочу и соскочу. Супергерои Скачать торрент  

Захочу и соскочу. Супергерои / Smetto quando voglio: Ad honorem Год выхода: 2017
Жанр: боевик, комедия
Страна: Италия
Студия: Apulia Film Commission, Direzione Generale Cinema
Продолжительность: 01:42:00
Перевод: Профессиональный (многоголосый, закадровый) | iTunes

Режиссер: Сидней Сибилиа

В ролях: Эдоардо Лео, Валерио Эпри, Паоло Калабрези, Либеро Де Риенцо, Стефано Фрези, Лоренцо Лавиа, Пьетро Сермонти, Марко Бонини, Розарио Лизма, Джампаоло Морелли

О фильме:

Пьетро Дзинни в тюрьме за производство легальных наркотиков, и вместе с ним ждет приговора суда вся его банда. Но в это время Вальтер Меркурио готовит теракт в Риме. Случайно узнав об этом, банда решает устроить побег, ведь только лучшие умы страны могут спасти Вечный город. Но кто такой Вальтер Меркурио? Что он скрывает? Какой у него план? Банда ученых объединяется снова, чтобы остановить злодея.

rating

Файл
Качество: BDRemux 1080p
Видео: AVC/H.264, 1920x1080, ~27,8 Мbps, 24 fps
Звук 1: AC3, 6 ch, 384 Kbps - Русский
Звук 2: DTS-HD MA, 6 ch, 3951 Kbps - Итальянский
Субтитры: Русские (форс), английские
Общее

Уникальный идентификатор : 205088341273186122533983482464025277134 (0x9A4A93E8C0AE7C0B25FF76505C8172CE)

Полное имя : Smetto Quando Voglio_Ad Honorem.2017.Remux.W.mkv

Формат : Matroska

Версия формата : Version 4

Размер файла : 22,9 Гбайт

Продолжительность : 1 ч. 42 м.

Режим общего битрейта : Переменный

Общий поток : 32,1 Мбит/сек

Название фильма : Smetto Quando Voglio_Ad Honorem.2017.Remux.W

Дата кодирования : UTC 2019-01-24 17:15:37

Программа кодирования : mkvmerge v23.0.0 ('The Bride Said No') 64-bit

Библиотека кодирования : libebml v1.3.6 + libmatroska v1.4.9

Видео

Идентификатор : 1

Формат : AVC

Формат/Информация : Advanced Video Codec

Профиль формата : High@L4.1

Настройки формата : CABAC / 4 Ref Frames

Параметр CABAC формата : Да

Параметр RefFrames формата : 4 кадра

Параметр GOP формата : M=3, N=24

Идентификатор кодека : V_MPEG4/ISO/AVC

Продолжительность : 1 ч. 42 м.

Вид битрейта : Постоянный

Битрейт : 27,8 Мбит/сек

Номинальный битрейт : 30,0 Мбит/сек

Ширина : 1920 пикселей

Высота : 1080 пикселей

Соотношение сторон : 16:9

Режим частоты кадров : Постоянный

Частота кадров : 24,000 кадра/сек

Стандарт вещания : NTSC

Цветовое пространство : YUV

Субдискретизация насыщенности : 4:2:0

Битовая глубина : 8 бит

Тип развёртки : Прогрессивная

Бит/(Пиксели*Кадры) : 0.558

Размер потока : 19,8 Гбайт (86%)

Язык : Italian

Default : Да

Forced : Нет

Цветовой диапазон : Limited

Основные цвета : BT.709

Характеристики трансфера : BT.709

Коэффициенты матрицы : BT.709

Аудио #1

Идентификатор : 2

Формат : AC-3

Формат/Информация : Audio Coding 3

Коммерческое название : Dolby Digital

Идентификатор кодека : A_AC3

Продолжительность : 1 ч. 41 м.

Вид битрейта : Постоянный

Битрейт : 384 Кбит/сек

Каналы : 6 каналов

Channel layout : L R C LFE Ls Rs

Частота : 48,0 КГц

Частота кадров : 31,250 кадров/сек (1536 SPF)

Битовая глубина : 16 бит

Метод сжатия : С потерями

Размер потока : 280 Мбайт (1%)

Заголовок : MVO | iTunes

Язык : Russian

ServiceKind : Complete Main

Default : Да

Forced : Нет

Аудио #2

Идентификатор : 3

Формат : DTS XLL

Формат/Информация : Digital Theater Systems

Коммерческое название : DTS-HD Master Audio

Идентификатор кодека : A_DTS

Продолжительность : 1 ч. 42 м.

Вид битрейта : Переменный

Битрейт : 3951 Кбит/сек

Каналы : 6 каналов

Channel layout : C L R Ls Rs LFE

Частота : 48,0 КГц

Частота кадров : 93,750 кадра/сек (512 SPF)

Битовая глубина : 24 бит

Метод сжатия : Без потерь

Размер потока : 2,82 Гбайт (12%)

Язык : Italian

Default : Нет

Forced : Нет

Текст #1

Идентификатор : 4

Формат : UTF-8

Идентификатор кодека : S_TEXT/UTF8

Идентификатор кодека/Информация : UTF-8 Plain Text

Продолжительность : 55 м. 44 с.

Битрейт : 6 бит/сек

ElementCount : 43

Размер потока : 2,54 Кбайт (0%)

Заголовок : Forced

Язык : Russian

Default : Да

Forced : Нет

Текст #2

Идентификатор : 5

Формат : UTF-8

Идентификатор кодека : S_TEXT/UTF8

Идентификатор кодека/Информация : UTF-8 Plain Text

Продолжительность : 1 ч. 34 м.

Битрейт : 79 бит/сек

ElementCount : 1285

Размер потока : 55,5 Кбайт (0%)

Заголовок : Full

Язык : English

Default : Нет

Forced : Нет

Меню

00:00:00.000 : it:Chapter 1

00:07:20.041 : it:Chapter 2

00:15:56.625 : it:Chapter 3

00:32:35.750 : it:Chapter 4

00:38:59.416 : it:Chapter 5

00:49:52.666 : it:Chapter 6

01:02:55.750 : it:Chapter 7

01:08:44.333 : it:Chapter 8

01:15:12.916 : it:Chapter 9

01:19:09.958 : it:Chapter 10

01:25:32.958 : it:Chapter 11

01:36:30.625 : it:Chapter 12
скриншот  скриншот  скриншот  
pb.wtf



Скачать Захочу и соскочу. Супергерои через торрент http://b.radikal.ru/b24/1901/2c/4c2da644a5cb.jpg Скачать фильм Захочу и соскочу. Супергерои через торрент бесплантно в хорошем качестве О фильме:Пьетро Дзинни в тюрьме за легальных наркотиков, и вместе с ним ждет приговора суда вся его банда. Но в это время ... 10 10 3
Торрент: Зарегистрирован [2019-01-24 18:40] · скачан: 13 раз
Статус: √ проверено
Размер: 22.88 GB
Как cкачать? Как скачать Захочу и соскочу. Супергерои через торрент | qTorrent

% Раздел Тема Автор DL S | L
Фильмы 2017 [DVDrip, WEB-DLRip, HDrip] (DUB, MVO) [ 1.46 GB ] Захочу и соскочу. Супергерои / Smetto quando voglio: Ad honorem [2017 BDRip] MVO bober100 Скачать
1 | 0
Фильмы [HD 720p, 1080p] (Хороший звук DUB, MVO) [ 5.15 GB ] Захочу и соскочу. Супергерои / Smetto quando voglio: Ad honorem [2017 BDRip 720p] MVO bober100 Скачать
1 | 0
Фильмы [HD 720p, 1080p] (Хороший звук DUB, MVO) [ 8.73 GB ] Захочу и соскочу. Супергерои / Smetto quando voglio: Ad honorem [2017 BDRip 1080p] MVO bober100 Скачать
1 | 0

28-11-2019 20:33  

Отключить всю рекламу на сайте

    Дорогой пользователь! Огромная просьба, поблагодарите релизера, оцените раздачу и оставьте свои комментарий, если Вы скачали Захочу и соскочу. Супергерои через торрент бесплатно! Внесите свою лепту в развитие PiratBit!
    Комментировать посты могут только пользователи прошедшие не сложную регистрацию
    Показать сообщения:    

    Захочу и соскочу. Супергерои через торрент
    Скачать бесплатно Захочу и соскочу. Супергерои
    Захочу и соскочу. Супергерои скачать торрент
    Захочу и соскочу. Супергерои смотреть онлайн
    Cкачать фильм Захочу и соскочу. Супергерои бесплатно
    Захочу и соскочу. Супергерои скачать торрент в хорошем качестве
    Захочу и соскочу. Супергерои смотреть онлайн бесплатно в хорошем качестве


    Вы не можете начинать темы
    Вы не можете отвечать на сообщения
    Вы не можете редактировать свои сообщения
    Вы не можете удалять свои сообщения
    Вы не можете голосовать в опросах
    Вы не можете прикреплять файлы к сообщениям
    Вы можете скачивать файлы