Ссылка на приватное зеркало нашего сайта всего за 1$. Внимание количество ограничено!!!

2 сезон

iTunes

1 сезон

1

iTunes

iTunes

iTunes

1 сезон

RePack

30

ИГРА 18+

pack

ВАЖНО

!!Акция!!

Alien_RageХит недели

RePack

MK11
pack

Забери бонус

RePack

jed

!!Акция!!

Alien_Rage

RePack

fifa19

RePack

Assassins Creed: Odyssey

RePack

NEED FOR SPEED™ PAYBACK

4 сезон

9 сезон

Бесстыжие 9 сезон

Все сериалы

все сериалы на PB.wtf

RePack

FAR CRY 5
  

Беги! / Серии: 1-4 из 4 (Андрей Волгин) [2016, Боевик, детектив, криминал, HDTV 1080i] pb.wtf

Беги! через торрент pb.wtf

Размер: 12.42 GB | Добавлен: 1 год 9 мес. назад | Торрент скачан:127 раз
Скачать  

24-01-2019 19:39 Беги! Скачать торрент  

Беги!
Год выпуска: 2016
Страна: Россия
Жанр: Боевик, детектив, криминал
Продолжительность: ~ 00:46:00
Перевод: Не требуется
Субтитры: отсутствуют

Режиссер: Андрей Волгин

rating

В ролях:

Павел Прилучный, Денис Шведов, Иван Жидков, Екатерина Редникова, Светлана Смирнова-Марцинкевич, Михаил Трясоруков, Вячеслав Гумеров, Сергей Колос, Александр Кудренко, Татьяна Казючиц, Владимир Крылов, Сергей Харитонов

Описание:

Капитан полиции Николай Маркин едет в расположение колонии строгого режима где-то в тайге. У него секретное задание. Но добраться до колонии он не успевает: в трех километрах от въезда в зону Николай становится свидетелем побега заключенного, Дмитрия Воронкова. Ни секунды не колеблясь, офицер бросается в лес в погоню за преступником. В отличие от заключенного, который явно готовился к побегу, у Николая нет ни карты, ни продуктов, ни оружия. Тем не менее, он упорно следует за беглецом.

Два разных человека — заключенный и служитель закона — по воле судьбы переплетают свои жизни воедино. В течение нескольких дней произойдет масса невероятных событий, полностью переворачивающих отношение зрителя к происходящему на экране. В лучших традициях «Подозрительных лиц» ("Usual suspects») до самого конца истории мы не будем знать, кто же главный злодей и будем подозревать по очереди всех! Но какая же история без любви? Два друга, ставшие непримиримыми врагами, и красивая женщина между ними… Этот «классический любовный треугольник» обернется не одним сюрпризом! Массу интересных и порой шокирующих открытий предстоит сделать зрителю в ходе нашей истории: кто «подставил» и засадил Воронкова за решетку, почему преследователи пытаются убить капитана Маркина, что прячет «беглец» Дмитрий Воронков, какой правды он ищет… и почему непримиримые враги «спина-к-спине» защищают друг друга?

Качество: HDTV 1080i
Формат: TS

Видео: 1920х1080 (16:9), 25 fps, AVC MPEG-4 (x264), High@L4.0 ~ 9000 kbps , 0.176 bit/pixel
Аудио: Русский (AC3, 6 ch, 448 Кбит/с),(MP2, 2 ch, 192 Кбит/с)
скриншот  скриншот  скриншот  скриншот  

General
ID : 1 (0x1)
Complete name : D:\Раздачи\Беги! (1-4 серии из 4) HDTV (1080i)\Begi.(01.seriya.iz.04).2016.HDTV.(1080i).Nikolspup.ts
Format : MPEG-TS
File size : 2.75 GiB
Duration : 46mn 25s
Overall bit rate mode : Variable
Overall bit rate : 8 472 Kbps

Video
ID : 67 (0x43)
Menu ID : 1 (0x1)
Format : AVC
Format/Info : Advanced Video Codec
Format profile : Main@L4
Format settings, CABAC : Yes
Format settings, ReFrames : 2 frames
Codec ID : 27
Duration : 46mn 25s
Bit rate : 7 859 Kbps
Width : 1 920 pixels
Height : 1 080 pixels
Display aspect ratio : 16:9
Frame rate : 25.000 fps
Color space : YUV
Chroma subsampling : 4:2:0
Bit depth : 8 bits
Scan type : MBAFF
Scan type, store method : Interleaved fields
Scan order : Top Field First
Bits/(Pixel*Frame) : 0.152
Stream size : 2.55 GiB (93%)
Color range : Limited
Color primaries : BT.709
Transfer characteristics : BT.709
Matrix coefficients : BT.709

Audio
ID : 902 (0x386)
Menu ID : 1 (0x1)
Format : MPEG Audio
Format version : Version 1
Format profile : Layer 2
Codec ID : 3
Duration : 46mn 25s
Bit rate mode : Constant
Bit rate : 192 Kbps
Channel(s) : 2 channels
Sampling rate : 48.0 KHz
Compression mode : Lossy
Stream size : 63.7 MiB (2%)
Language : Russian

pb.wtf



Скачать Беги! через торрент http://i82.fastpic.ru/big/2016/0904/08/c3f8a03daa80880e609a3bbd58a26508.jpg Скачать фильм Беги! через торрент бесплантно в хорошем качестве Описание: Капитан полиции Николай Маркин едет в расположение колонии строгого режима где-то в тайге. У него секретное задание. Но добраться ... 10 10 6
Торрент: Зарегистрирован [2019-01-24 19:39] · скачан: 127 раз
Статус: √ проверено
Размер: 12.42 GB
Как cкачать? Как скачать Беги! через торрент | qTorrent

% Раздел Тема Автор DL S | L
Зарубежные сериалы [ 5.39 GB ] Беги / Run / Сезон: 1 / Серии: 1-4 из 4 [2013 WEB-DL 720p] MVO [TVShows] bober100 Скачать
1 | 0
Зарубежные сериалы [ 13.25 GB ] Беги / Run / Сезон: 1 / Серии: 1-4 из 4 [2013 WEB-DL 1080p] [MVO] killermax2013 Скачать
1 | 0
Наши сериалы [ 4.16 GB ] Беги не оглядывайся! / Серии: 1-4 из 4 [2017 Мело WEB-DL 1080p] bober100 Скачать
1 | 0
Наши сериалы [ 2.3 GB ] Беги не оглядывайся / Серии: 1-4 из 4 [2017 SATRip-AVC] aleksan55 Скачать
1 | 0
Наши сериалы [ 2.63 GB ] Беги не оглядывайся! / Серия 1-4 из 4 [2017 Мело SATRip] oleg8 Скачать
1 | 0
Наши сериалы [ 10.81 GB ] Беги! [2016 HDTV Оригинал] Бумер Скачать
1 | 0
Наши сериалы [ 2.44 GB ] Беги! [2016 SATRip] smaster Скачать
1 | 0

28-11-2019 20:33  

Отключить всю рекламу на сайте

    Дорогой пользователь! Огромная просьба, поблагодарите релизера, оцените раздачу и оставьте свои комментарий, если Вы скачали Беги! через торрент бесплатно! Внесите свою лепту в развитие PiratBit!
    Комментировать посты могут только пользователи прошедшие не сложную регистрацию
    Показать сообщения:    

    Беги! через торрент
    Скачать бесплатно Беги!
    Беги! скачать торрент
    Беги! смотреть онлайн
    Cкачать фильм Беги! бесплатно
    Беги! скачать торрент в хорошем качестве
    Беги! смотреть онлайн бесплатно в хорошем качестве


    Вы не можете начинать темы
    Вы не можете отвечать на сообщения
    Вы не можете редактировать свои сообщения
    Вы не можете удалять свои сообщения
    Вы не можете голосовать в опросах
    Вы не можете прикреплять файлы к сообщениям
    Вы можете скачивать файлы