Ссылка на приватное зеркало нашего сайта всего за 1$. Внимание количество ограничено!!!

2 сезон

iTunes

1 сезон

1

2 сезон

2 сезон

iTunes

1 сезон

RePack

30

Ultimate

ВАЖНО

ИГРА 18+

pack

RePack

MK11
pack

Забери бонус

RePack

jed

!!Акция!!

Alien_Rage

RePack

fifa19

RePack

Assassins Creed: Odyssey

RePack

NEED FOR SPEED™ PAYBACK

4 сезон

9 сезон

Бесстыжие 9 сезон

Все сериалы

все сериалы на PB.wtf

RePack

FAR CRY 5
  

Сирена / Siren / Сезон 1 / Серии 1-10 из 10 (Ник Копус) [2018, фэнтези, драма WEB-DLRip] MVO [AlexFilm] pb.wtf

Сирена через торрент pb.wtf

Размер: 4.82 GB | Добавлен: 1 год 10 мес. назад | Торрент скачан:60 раз
Скачать  

24-01-2019 20:44 Сирена Скачать торрент  

Сирена / Siren Год выпуска: 2018
Страна: США
Жанр: фэнтези, драма
Продолжительность: ~ 00:45:00
Перевод: Профессиональное многоголосое закадровое | AlexFilm
Субтитры: нет

Режиссёр: Ник Копус, Стив Эделсон, Джон Бэдэм

В ролях:

Алекс Роу, Элайн Пауэлл, Фола Эванс-Экинбола, Йен Вердён, Рина Оуэн, Сибонгиле Мламбо, Чад Рук, Кертис Льюм, Рон Юань, Тэмми Гиллис и другие

Описание:

Бристоль Коув давно известен своими легендами о русалках. Говорят, что именно здесь они и обитают. Местные жители сделали эти легенды частью своей жизни и даже проводят посвященные русалкам праздники. Однажды в городке появляется странная девушка. Ею увлекается морской биолог Бен, не подозревающий о мрачной тайне, которую скрывает Рин. Одновременно в городке начинают происходить и другие странные события. Какие тайны скрывает море? Русалки совсем не так добры, как в детских сказках. Когда тайна откроется, начнется эпическая битва между людьми и морем.

Релиз:

Перевод: Мисс Джэксон, Алиса Голланова
Монтаж и сведение звука: Михаил Шорыгин
Роли озвучивали:

Татьяна Манетина
Маргарита Корш
Кирилл Патрино
Константин Федосеев
Алексей Никитин
Михаил Федосеев

Сэмпл: http://sendfile.su/1411630


Качество: WEB-DLRip
Формат: AVI

Видео: 720x400 (16:9), 23.976 fps, XviD ~1400 kbps avg, 0.203 bit/pixel
Аудио Rus: 48 kHz, MPEG Layer 3, 2 ch, ~128.00 kbps avg
Аудио Eng: 48 kHz, MPEG Layer 3, 2 ch, ~128.00 kbps avg


Реклама: аудио (два раза, в начале 10 и в конце 10 сек.)
скриншот  скриншот  скриншот  скриншот  
Format : AVI
Format/Info : Audio Video Interleave
File size : 557 MiB
Duration : 46 min 34 s
Overall bit rate : 1 673 kb/s
Movie name : Siren 1x01 @ AlexFilm
Writing application : VirtualDubMod 1.5.10.2 (build 2540/release)
Writing library : VirtualDubMod build 2540/release

Video
ID : 0
Format : MPEG-4 Visual
Format profile : Advanced Simple@L5
Format settings, BVOP : No
Format settings, QPel : No
Format settings, GMC : No warppoints
Format settings, Matrix : Default (MPEG)
Codec ID : XVID
Codec ID/Hint : XviD
Duration : 46 min 34 s
Bit rate : 1 403 kb/s
Width : 720 pixels
Height : 400 pixels
Display aspect ratio : 16:9
Frame rate : 23.976 (24000/1001) FPS
Color space : YUV
Chroma subsampling : 4:2:0
Bit depth : 8 bits
Scan type : Progressive
Compression mode : Lossy
Bits/(Pixel*Frame) : 0.203
Stream size : 467 MiB (84%)
Writing library : XviD 67

Audio #1
ID : 1
Format : MPEG Audio
Format version : Version 1
Format profile : Layer 3
Format settings : Joint stereo / MS Stereo
Codec ID : 55
Codec ID/Hint : MP3
Duration : 46 min 34 s
Bit rate mode : Constant
Bit rate : 128 kb/s
Channel(s) : 2 channels
Sampling rate : 48.0 kHz
Frame rate : 41.667 FPS (1152 SPF)
Compression mode : Lossy
Stream size : 42.6 MiB (8%)
Alignment : Aligned on interleaves
Interleave, duration : 42 ms (1.00 video frame)
Interleave, preload duratio : 504 ms
Title : Russian (AlexFilm)
Writing library : LAME3.99r
Encoding settings : -m j -V 4 -q 3 -lowpass 18 -b 128

Audio #2
ID : 2
Format : MPEG Audio
Format version : Version 1
Format profile : Layer 3
Format settings : Joint stereo / MS Stereo
Codec ID : 55
Codec ID/Hint : MP3
Duration : 46 min 34 s
Bit rate mode : Constant
Bit rate : 128 kb/s
Channel(s) : 2 channels
Sampling rate : 48.0 kHz
Compression mode : Lossy
Stream size : 42.6 MiB (8%)
Alignment : Aligned on interleaves
Interleave, duration : 42 ms (1.00 video frame)
Interleave, preload duratio : 504 ms
Title : English
Writing library : LAME3.90.3
Внимание! Раздача ведётся путём добавления новых серий; при каждом добавлении создаётся новый торрент. Чтобы начать докачку новой серии, пользователям необходимо сделать следующее:
(1) остановить скачивание,
(2) удалить старый торрент у себя из клиента (старые серии удалять не надо),
(3) скачать новый торрент и запустить его у себя в клиенте вместо старого, при этом указать клиенту путь в старую папку куда и должно происходить скачивание новых серий.
Ваш клиент при этом должен произвести хеширование (проверку) старой папки (если не производит сам - помогите ему сделать это), и будет докачивать только те серии которых у вас ещё нет. Старые серии при этом не удаляются, а продолжают раздаваться!
Eсли вы уже удалили старые серии, то предотвратить повторную закачку старых серий можно, отжав галочку в соответствующих местах при запуске нового торрента. По возможности, желательно не удалять старые серии как можно дольше чтобы релизёр не столько продолжал раздавать старые серии, а смог сконцентрироваться на новых.
pb.wtf



Скачать Сирена через торрент http://i105.fastpic.ru/big/2018/0407/07/2a8013bf6e57eedce245cc9f25404d07.jpg Скачать фильм Сирена через торрент бесплантно в хорошем качестве Описание: Бристоль Коув давно известен своими легендами о русалках. Говорят, что именно здесь они и обитают. Местные жители сделали эти ... 10 10 3
Торрент: Зарегистрирован [2019-01-24 20:44] · скачан: 60 раз
Статус: √ проверено
Размер: 4.82 GB
Как cкачать? Как скачать Сирена через торрент | qTorrent

% Раздел Тема Автор DL S | L
Зарубежные сериалы [ 13.16 GB ] Сирена / Siren / Сезон: 3 / Серии: 1-10 из 10 [2020 WEB-DL 720p] MVO [Lostfilm] bober100 Скачать
1 | 0
Зарубежные сериалы [ 13.16 GB ] Сирена / Siren / Сезон: 3 / Серии: 1-10 из 10 [2020 WEB-DL 720p] MVO [AlexFilm] bober100 Скачать
1 | 1
Зарубежные сериалы [ 46.98 GB ] Сирена / Siren / Сезон: 2 / Серии: 1-16 из 16 [2019 WEB-DL 1080p] DUB [Кириллица] bober100 Скачать
1 | 0
Зарубежные сериалы [ 31.87 GB ] Сирена / Siren / Сезон 1 / Серии 1-10 из 10 [2018 WEB-DL 1080p] MVO [TVShows] bober100 Скачать
1 | 0
Зарубежные сериалы [ 11.57 GB ] Сирена / Siren / Сезон 1 / Серии 1-10 из 10 [2018 WEB-DL 720p] MVO [TVShows] bober100 Скачать
1 | 0
Зарубежные сериалы [ 45.97 GB ] Сирена / Siren / Сезон: 2 / Серии: 1-16 из 16 [2019 WEB-DL 1080p] [MVO] killermax2013 Скачать
1 | 0
Зарубежные сериалы [ 23.64 GB ] Сирена / Siren / Сезон: 2 / Серии: 1-8 из 10 [2019 WEB-DL 1080p] [MVO] killermax2013 Скачать
1 | 0

28-11-2019 20:33  

Отключить всю рекламу на сайте

    Дорогой пользователь! Огромная просьба, поблагодарите релизера, оцените раздачу и оставьте свои комментарий, если Вы скачали Сирена через торрент бесплатно! Внесите свою лепту в развитие PiratBit!
    Комментировать посты могут только пользователи прошедшие не сложную регистрацию
    Показать сообщения:    

    Сирена через торрент
    Скачать бесплатно Сирена
    Сирена скачать торрент
    Сирена смотреть онлайн
    Cкачать фильм Сирена бесплатно
    Сирена скачать торрент в хорошем качестве
    Сирена смотреть онлайн бесплатно в хорошем качестве


    Вы не можете начинать темы
    Вы не можете отвечать на сообщения
    Вы не можете редактировать свои сообщения
    Вы не можете удалять свои сообщения
    Вы не можете голосовать в опросах
    Вы не можете прикреплять файлы к сообщениям
    Вы можете скачивать файлы