Ссылка на приватное зеркало нашего сайта всего за 1$. Внимание количество ограничено!!!

2 сезон

iTunes

1 сезон

1

2 сезон

2 сезон

iTunes

1 сезон

RePack

30

Ultimate

ВАЖНО

ИГРА 18+

pack

RePack

MK11
pack

Забери бонус

RePack

jed

!!Акция!!

Alien_Rage

RePack

fifa19

RePack

Assassins Creed: Odyssey

RePack

NEED FOR SPEED™ PAYBACK

4 сезон

9 сезон

Бесстыжие 9 сезон

Все сериалы

все сериалы на PB.wtf

RePack

FAR CRY 5
  

Каратель / The Punisher / Сезон: 2 / Серии: 1-13 из 13 (Джим О’Хенлон, Джереми Уэбб, Джет Уилкинсон) [2019, фантастика, боевик, триллер, драма, криминал., WEB-DLRip] MVO [NewStudio] pb.wtf

Каратель через торрент pb.wtf

Размер: 13.26 GB | Добавлен: 1 год 9 мес. назад | Торрент скачан:58 раз
Скачать  

25-01-2019 02:02 Каратель Скачать торрент  

Каратель / The Punisher Год выпуска: 2019
Страна: США
Жанр: фантастика, боевик, триллер, драма, криминал, приключения.
Продолжительность: ~ 00:55:00
Перевод: Профессиональный (многоголосый закадровый) | NewStudio
Субтитры: Английские

Режиссёр: Джим О’Хенлон, Джереми Уэбб, Джет Уилкинсон

В ролях:

Бен Барнс, Дебора Энн Уолл, Эмбер Роуз Рева, Джейсон Р. Мур, Джош Стюарт, Флориана Лима.

Описание:

Бывший морпех Фрэнк Касл на время покончил с ролью линчевателя и отправился колесить по стране. Но мирная жизнь продлилась недолго — он ввязывается в дело, связанное с попыткой убийства девчонки-подростка. Втянутый в тайну, окружающую его новую знакомую и тех, кто на неё охотится, Касл снова подставляет себя под пули. Вступив в противостояние с новыми и старыми врагами, главный герой должен решить раз и навсегда, готов ли он окончательно перевоплотиться в Карателя.




Качество: WEB-DLRip
Формат: AVI

Видео: XviD, 720x400, 23,976 fps, ~ 1999 kbps
Аудио 1: 48 kHz, AC3 Dolby Digital, 3/2 (L,C,R,l,r) + LFE ch, ~384 kbps|NewStudio|
Аудио 2: 48 kHz, AC3 Dolby Digital, 3/2 (L,C,R,l,r) + LFE ch, ~384 kbps
Format : AVI
Format/Info : Audio Video Interleave
File size : 1.02 GiB
Duration : 52mn 17s
Overall bit rate : 2 782 Kbps
Movie name : Каратель 2х01: Придорожный блюз
Director : Бёдвар (WEBRip 400p)
Writing application : VirtualDubModRus 1.5.10.2 (build 2542/release)
Comment : 25.01.2019

Video
ID : 0
Format : MPEG-4 Visual
Format profile : Advanced Simple@L5
Format settings, BVOP : 1
Format settings, QPel : No
Format settings, GMC : No warppoints
Format settings, Matrix : Default (MPEG)
Codec ID : XVID
Codec ID/Hint : XviD
Duration : 52mn 17s
Bit rate : 2 000 Kbps
Width : 720 pixels
Height : 400 pixels
Display aspect ratio : 16:9
Frame rate : 23.976 (24000/1001) fps
Color space : YUV
Chroma subsampling : 4:2:0
Bit depth : 8 bits
Scan type : Progressive
Compression mode : Lossy
Bits/(Pixel*Frame) : 0.290
Stream size : 748 MiB (72%)
Writing library : XviD 67

Audio #1
ID : 1
Format : AC-3
Format/Info : Audio Coding 3
Mode extension : CM (complete main)
Format settings, Endianness : Big
Codec ID : 2000
Duration : 52mn 17s
Bit rate mode : Constant
Bit rate : 384 Kbps
Channel(s) : 6 channels
Channel positions : Front: L C R, Side: L R, LFE
Sampling rate : 48.0 KHz
Frame rate : 31.250 fps (1536 spf)
Compression mode : Lossy
Stream size : 144 MiB (14%)
Alignment : Split accross interleaves
Interleave, duration : 42 ms (1.00 video frame)
Interleave, preload duratio : 500 ms

Audio #2
ID : 2
Format : AC-3
Format/Info : Audio Coding 3
Mode extension : CM (complete main)
Format settings, Endianness : Big
Codec ID : 2000
Duration : 52mn 17s
Bit rate mode : Constant
Bit rate : 384 Kbps
Channel(s) : 6 channels
Channel positions : Front: L C R, Side: L R, LFE
Sampling rate : 48.0 KHz
Frame rate : 31.250 fps (1536 spf)
Compression mode : Lossy
Stream size : 144 MiB (14%)
Alignment : Split accross interleaves
Interleave, duration : 42 ms (1.00 video frame)
Interleave, preload duratio : 500 ms
скриншот  скриншот  скриншот  скриншот  
[font-serif1]Внимание! Раздача ведётся путём добавления новых серий; при каждом добавлении создаётся новый торрент. Чтобы начать докачку новой серии,пользователям необходимо сделать следующее:
(1) остановить скачивание,
(2) удалить старый торрент у себя из клиента (старые серии удалять не надо),
(3) скачать новый торрент и запустить его у себя в клиенте вместо старого, при этом указать клиенту путь в старую папку куда и должнопроисходить скачивание новых серий.

Ваш клиент при этом должен произвести хеширование (проверку) старой папки (если не производит сам - помогите ему сделать это), и будет докачивать только те серии
которых у вас ещё нет. Старые серии при этом не удаляются, а продолжают раздаваться!

Eсли вы уже удалили старые серии, то предотвратить повторную закачку старых серий можно, отжав галочку в соответствующих местах при запуске нового торрента.

По возможности, желательно не удалять старые серии как можно дольше чтобы релизёр не столько продолжал раздавать старые серии, а смог сконцентрироваться на новых.
[/font-serif1]
pb.wtf



Скачать Каратель через торрент http://pic1.kartinco.top/images/12/4eca4.jpg Скачать фильм Каратель через торрент бесплантно в хорошем качестве Описание: Бывший морпех Фрэнк Касл на время покончил с ролью линчевателя и отправился колесить по стране. Но мирная жизнь продлилась ... 10 10 5
Торрент: Зарегистрирован [2019-02-08 07:32] · скачан: 58 раз
Статус: √ проверено
Размер: 13.26 GB
Как cкачать? Как скачать Каратель через торрент | qTorrent

% Раздел Тема Автор DL S | L
Зарубежные сериалы [ 14.6 GB ] Каратель / The Punisher / Сезон: 2 / Серии: 1-13 из 13 [2019 WEB-DL 720p] [DVO] killermax2013 Скачать
1 | 0
Зарубежные сериалы [ 29.1 GB ] Каратель / The Punisher / Сезон: 2 / Серии: 1-13 из 13 [2019 WEBRip 1080p] [MVO] killermax2013 Скачать
1 | 0
Зарубежные сериалы [ 12.44 GB ] Каратель / The Punisher / Сезон: 2 / Серии: 1-13 из 13 [2019 WEB-DL 720p] MVO [NewStudio] bober100 Скачать
1 | 0
Зарубежные сериалы [ 23.53 GB ] Каратель / The Punisher / Сезон: 2 / Серии: 1-13 из 13 [2019 WEBRip 1080p] [MVO] killermax2013 Скачать
1 | 0
Зарубежные сериалы [ 12.14 GB ] Каратель / The Punisher / Сезон: 2 / Серии: 1-13 из 13 [2019 WEBRip 720p] MVO [Baibako] bober100 Скачать
1 | 0
Зарубежные сериалы [ 23.29 GB ] Каратель / The Punisher / Сезон: 2 / Серии: 1-13 из 13 [2019 WEB-DL 1080p] MVO [Jaskier] bober100 Скачать
1 | 0
Зарубежные сериалы [ 12.19 GB ] Каратель / The Punisher / Сезон: 2 / Серии: 1-13 из 13 [2019 WEB-DL 720p] MVO [Jaskier] bober100 Скачать
1 | 0

28-11-2019 20:33  

Отключить всю рекламу на сайте

    Дорогой пользователь! Огромная просьба, поблагодарите релизера, оцените раздачу и оставьте свои комментарий, если Вы скачали Каратель через торрент бесплатно! Внесите свою лепту в развитие PiratBit!
    Комментировать посты могут только пользователи прошедшие не сложную регистрацию
    Показать сообщения:    

    Каратель через торрент
    Скачать бесплатно Каратель
    Каратель скачать торрент
    Каратель смотреть онлайн
    Cкачать фильм Каратель бесплатно
    Каратель скачать торрент в хорошем качестве
    Каратель смотреть онлайн бесплатно в хорошем качестве


    Вы не можете начинать темы
    Вы не можете отвечать на сообщения
    Вы не можете редактировать свои сообщения
    Вы не можете удалять свои сообщения
    Вы не можете голосовать в опросах
    Вы не можете прикреплять файлы к сообщениям
    Вы можете скачивать файлы