Ссылка на приватное зеркало нашего сайта всего за 1$. Внимание количество ограничено!!!

2 сезон

iTunes

1 сезон

1

2 сезон

2 сезон

iTunes

1 сезон

RePack

30

Новинка

ВАЖНО

ИГРА 18+

pack

RePack

MK11
pack

Забери бонус

RePack

jed

!!Акция!!

Alien_Rage

RePack

fifa19

RePack

Assassins Creed: Odyssey

RePack

NEED FOR SPEED™ PAYBACK

4 сезон

9 сезон

Бесстыжие 9 сезон

Все сериалы

все сериалы на PB.wtf

RePack

FAR CRY 5
  

187 / One Eight Seven (Кевин Рейнольдс ) [1997, триллер, драма, UHD BDRemux 2160p] [SDR] DVO + AVO [Гаврилов] pb.wtf

187 через торрент pb.wtf

Размер: 43.57 GB | Добавлен: 1 год 10 мес. назад | Торрент скачан:18 раз
Скачать  

25-01-2019 02:07 187 Скачать торрент  

187 / One Eight Seven««Когда школы становятся зонами войны, то неизбежны столкновения... кто следующий?»»

Год выпуска: 1997
Страна: США
Жанр: триллер, драма
Продолжительность: 01:59:34
Перевод: Профессиональный двухголосый, авторский
Субтитры: Русские, английские
Режиссер: Кевин Рейнольдс
В ролях:

Сэмюэл Л. Джексон (Trevor Garfield), Клифтон Коллинз мл. (Cesar Sanchez), Джон Хёрд (Dave Childress), Тони Плана (Principal Garcia), Энтвон Тэннер (Augie), Ричард Рили (Walter), Келли Роуэн (Ellen Henry), Карина Арройяве (Rita Martinez), Лобо Себастьян (Benny Chacon), Джек Келер (Larry Hyland), Джона Руни (Stevie Littleton), Деметриус Наварро (Paco)
Описание:
Где обитают ублюдки? Учитель из Бруклина Тревор Гарфилд видит их каждый день в школе. Это готовые бандиты, от которых можно ждать чего угодно. Один из них из мести совершает попытку убить Гарфилда.
Рейтинг:

MPAA: R - Лицам до 17 лет обязательно присутствие взрослого
Качество: UHD BDRemux 2160p | SDR
Формат: MKV
Видео: HEVC, 48581 Кбит/с, 3840x2160, 23.976 Кадр/с, 10 бит
Аудио 1: Русский, 192 Кбит/сек, 48,0 КГц, 16 бит, 2 канала, AC-3 - Профессиональный двухголосый
Аудио 2: Русский, DTS MA: 2.0 / 48,0 КГц / 1005 Кбит/сек / 16 бит / (DTS Core: 2.0 / 48,0 КГц / 768 Кбит/сек / 16 бит) - Гаврилов
Аудио 3: Английский, DTS MA: 5.1 / 48,0 КГц / 2495 Кбит/сек / 24 бит / (DTS Core: 5.1 / 48,0 КГц / 1509 Кбит/сек / 24 бит)
Навигация по главам: есть
Общее
Уникальный идентификатор : 323369500167051882155992648376375676462 (0xF346B349F65C5C653462FE212C898E2E)
Полное имя : G:\MONAR\Художественные фильмы\Зарубежное кино\Один восемь семь (1997) UHD BDRemux 2160p.mkv
Формат : Matroska
Версия формата : Version 4
Размер файла : 43,6 Гбайт
Продолжительность : 1 ч. 59 м.
Режим общего битрейта : Переменный
Общий поток : 52,2 Мбит/сек
Название фильма : One eight seven (1997)
Дата кодирования : UTC 2019-01-24 15:32:14
Программа кодирования : mkvmerge v30.1.0 ('Forever And More') 64-bit
Библиотека кодирования : libebml v1.3.6 + libmatroska v1.4.9

Видео
Идентификатор : 1
Формат : HEVC
Формат/Информация : High Efficiency Video Coding
Профиль формата : Main 10@L5.1@High
Идентификатор кодека : V_MPEGH/ISO/HEVC
Продолжительность : 1 ч. 59 м.
Битрейт : 48,5 Мбит/сек
Ширина : 3840 пикселей
Высота : 2160 пикселей
Соотношение сторон : 16:9
Режим частоты кадров : Постоянный
Частота кадров : 23,976 (24000/1001) кадра/сек
Цветовое пространство : YUV
Субдискретизация насыщенности : 4:2:0
Битовая глубина : 10 бит
Бит/(Пиксели*Кадры) : 0.244
Размер потока : 40,5 Гбайт (93%)
Библиотека кодирования : ATEME Titan File 3.7.7 (4.7.7.0)
Язык : English
Default : Да
Forced : Нет
Цветовой диапазон : Limited
Основные цвета : BT.709
Характеристики трансфера : BT.709
Коэффициенты матрицы : BT.709

Аудио #1
Идентификатор : 2
Формат : AC-3
Формат/Информация : Audio Coding 3
Коммерческое название : Dolby Digital
Идентификатор кодека : A_AC3
Продолжительность : 1 ч. 59 м.
Вид битрейта : Постоянный
Битрейт : 192 Кбит/сек
Каналы : 2 канала
Channel layout : L R
Частота : 48,0 КГц
Частота кадров : 31,250 кадров/сек (1536 SPF)
Битовая глубина : 16 бит
Метод сжатия : С потерями
Размер потока : 164 Мбайт (0%)
Заголовок : DVO
Язык : Russian
ServiceKind/String : Complete Main
Default : Да
Forced : Нет

Аудио #2
Идентификатор : 3
Формат : DTS XLL
Формат/Информация : Digital Theater Systems
Коммерческое название : DTS-HD Master Audio
Идентификатор кодека : A_DTS
Продолжительность : 1 ч. 59 м.
Вид битрейта : Переменный
Битрейт : 1004 Кбит/сек
Каналы : 2 канала
Channel layout : L R
Частота : 48,0 КГц
Частота кадров : 93,750 кадра/сек (512 SPF)
Битовая глубина : 16 бит
Метод сжатия : Без потерь
Размер потока : 859 Мбайт (2%)
Заголовок : AVO
Язык : Russian
Default : Нет
Forced : Нет

Аудио #3
Идентификатор : 4
Формат : DTS XLL
Формат/Информация : Digital Theater Systems
Коммерческое название : DTS-HD Master Audio
Идентификатор кодека : A_DTS
Продолжительность : 1 ч. 59 м.
Вид битрейта : Переменный
Битрейт : 2495 Кбит/сек
Каналы : 6 каналов
Channel layout : C L R Ls Rs LFE
Частота : 48,0 КГц
Частота кадров : 93,750 кадра/сек (512 SPF)
Битовая глубина : 24 бит
Метод сжатия : Без потерь
Размер потока : 2,08 Гбайт (5%)
Заголовок : original
Язык : English
Default : Нет
Forced : Нет

Текст #1
Идентификатор : 5
Формат : UTF-8
Идентификатор кодека : S_TEXT/UTF8
Идентификатор кодека/Информация : UTF-8 Plain Text
Продолжительность : 1 ч. 53 м.
Битрейт : 74 бит/сек
ElementCount : 912
Размер потока : 61,6 Кбайт (0%)
Заголовок : srt
Язык : Russian
Default : Нет
Forced : Нет

Текст #2
Идентификатор : 6
Формат : UTF-8
Идентификатор кодека : S_TEXT/UTF8
Идентификатор кодека/Информация : UTF-8 Plain Text
Продолжительность : 1 ч. 50 м.
Битрейт : 48 бит/сек
ElementCount : 1288
Размер потока : 39,6 Кбайт (0%)
Заголовок : srt
Язык : English
Default : Нет
Forced : Нет

Меню
00:00:00.000 : en:Chapter 1
00:09:26.816 : en:Chapter 2
00:23:24.277 : en:Chapter 3
00:29:41.863 : en:Chapter 4
00:39:22.068 : en:Chapter 5
00:55:20.150 : en:Chapter 6
01:10:48.285 : en:Chapter 7
01:22:41.623 : en:Chapter 8
01:32:32.088 : en:Chapter 9
01:40:31.150 : en:Chapter 10
01:50:21.573 : en:Chapter 11
pb.wtf



Скачать 187 через торрент https://d.radikal.ru/d29/1901/18/c702bdfe074a.png Скачать фильм 187 через торрент бесплантно в хорошем качестве Описание: Где обитают ублюдки? Учитель из Бруклина Тревор Гарфилд видит их каждый день в школе. Это готовые бандиты, от которых можно ждать ... 10 10 1
Info! Золотая раздача, скачанное не засчитывается.
Торрент: Зарегистрирован [2019-01-25 02:07] · скачан: 18 раз
Статус: √ проверено
Размер: 43.57 GB
Как cкачать? Как скачать 187 через торрент | qTorrent

% Раздел Тема Автор DL S | L
Фильмы [HD 720p, 1080p] (Хороший звук DUB, MVO) [ 7.94 GB ] 187 / One Eight Seven [1997 BDRip 1080p от еnvy / NNNB] DVO AVO еnvy Скачать
3 | 0
Фильмы [HD 720p, 1080p] (Хороший звук DUB, MVO) [ 12.75 GB ] 187 / One Eight Seven [1997 BDRip 1080p] DVO AVO msltel Скачать
1 | 0
Фильмы [HD 720p, 1080p] (Хороший звук DUB, MVO) [ 6.23 GB ] 187 / One Eight Seven [1997 BDRip 720p] DVO AVO msltel Скачать
1 | 0

28-11-2019 20:33  

Отключить всю рекламу на сайте

    Дорогой пользователь! Огромная просьба, поблагодарите релизера, оцените раздачу и оставьте свои комментарий, если Вы скачали 187 через торрент бесплатно! Внесите свою лепту в развитие PiratBit!
    Комментировать посты могут только пользователи прошедшие не сложную регистрацию
    Показать сообщения:    

    187 через торрент
    Скачать бесплатно 187
    187 скачать торрент
    187 смотреть онлайн
    Cкачать фильм 187 бесплатно
    187 скачать торрент в хорошем качестве
    187 смотреть онлайн бесплатно в хорошем качестве


    Вы не можете начинать темы
    Вы не можете отвечать на сообщения
    Вы не можете редактировать свои сообщения
    Вы не можете удалять свои сообщения
    Вы не можете голосовать в опросах
    Вы не можете прикреплять файлы к сообщениям
    Вы можете скачивать файлы