Ссылка на приватное зеркало всего за 1$. Внимание количество ограничено!!!

iTunes

1+1

iTunes

мы

WEB-DL

1

iTunes

Чернобыль

iTunes

Ральф против интернета

Лицензия

ПШазам

Лицензия

Оно 2

Лицензия

30
pack

Вам бонус

ВАЖНО

!!Акция!!

Alien_RageХит недели

RePack

Resident Evil 21

ИГРА 18+

pack

RePack

jed

!!Акция!!

Alien_Rage

RePack

fifa19

RePack

Assassins Creed: Odyssey

RePack

NEED FOR SPEED™ PAYBACK

3 сезон

9 сезон

Бесстыжие 9 сезон

Все сериалы

все сериалы на PB.wtf

RePack

FAR CRY 5
Ребята, катастрофически не хватает 1900р. для оплаты серверов за Октябрь (всвязи с блокировками трафик упал в 3 раза), 1-2р., выручайте.
  

Хэллфест / Hell Fest (Грегори Плоткин) [2018, Ужасы, BDRip-AVC] DUB [iTunes] pb.wtf

Хэллфест через торрент pb.wtf

Размер: 1.91 GB | Добавлен: 10 мес. назад | Торрент скачан:252 раза
Скачать  

25-01-2019 05:30 Хэллфест Скачать торрент  

Хэллфест / Hell Fest Год выпуска: 2018
Страна: США
Жанр: Ужасы
Продолжительность: 01:28:48
Перевод: Дублированный | iTunes
Субтитры: Английские (полные, SDH)

Режиссер: Грегори Плоткин

rating

В ролях:

Эми Форсайт, Рейн Эдвардс, Бекс Тейлор-Клаус, Кристиан Балис, Мэтт Меркьюрио, Тони Тодд, Микаэль Турек, Кортни Дитц, Эль Грэхэм, Алисия Росато

Описание:

Три подруги встречаются накануне Хэллоуина и вместе со своими парнями решают отметить праздник походом на Хэллфест, популярный фестиваль, главная цель организаторов и участников которого - напугать друг друга до полусмерти. Но для серийного убийцы в маске Хэллфест - это не просто карнавал ужасов, а площадка для смертельных игр. Он кромсает и душит у всех на виду, а возбужденная толпа и не подозревает, что вокруг множатся трупы. И, когда внимание маньяка переключается на Натали, Брук и Тейлор, девушки быстро понимают, что помощи ждать не от кого. Им предстоит бороться изо всех сил, чтобы пережить эту ночь.

Качество: BDRip-AVC
Формат: MKV

Видео: 1024x554 (1.85:1), 23,976 fps, x264 ~2 258 kbps avg, 0.166 bit/pixel
Аудио#1: 48 kHz, AC3 Dolby Digital Plus, 3/2 (L,C,R,l,r) + LFE ch, ~384.00 kbps avg | RUS (iTunes)
Аудио#2: 48 kHz, AC3 Dolby Digital Plus, 3/2 (L,C,R,l,r) + LFE ch, ~448.00 kbps avg | ENG
скриншот  скриншот  скриншот  скриншот  скриншот  

Общее
Уникальный идентификатор : 135678565982910640210139024738275703304 (0x6612BDC615FC68231C67AA8EA9F23A08)
Полное имя : F:\OlLanDGroup\Hell.Fest.2018.BDRip(AVC).OlLanDGroup.mkv
Формат : Matroska
Версия формата : Version 4 / Version 2
Размер файла : 1,91 Гбайт
Продолжительность : 1 ч. 28 м.
Общий поток : 3086 Кбит/сек
Название фильма : Hell.Fest.2018 #TorpedoUK#
Дата кодирования : UTC 2019-01-25 04:38:51
Программа кодирования : mkvmerge v29.0.0 ('Like It Or Not') 64-bit
Библиотека кодирования : libebml v1.3.6 + libmatroska v1.4.9

Видео
Идентификатор : 1
Формат : AVC
Формат/Информация : Advanced Video Codec
Профиль формата : High@L4.1
Параметр CABAC формата : Да
Параметр ReFrames формата : 10 кадров
Идентификатор кодека : V_MPEG4/ISO/AVC
Продолжительность : 1 ч. 28 м.
Битрейт : 2258 Кбит/сек
Ширина : 1024 пикселя
Высота : 554 пикселя
Соотношение сторон : 1,85:1
Режим частоты кадров : Постоянный
Частота кадров : 23,976 (24000/1001) кадра/сек
Цветовое пространство : YUV
Субдискретизация насыщенности : 4:2:0
Битовая глубина : 8 бит
Тип развёртки : Прогрессивная
Бит/(Пиксели*Кадры) : 0.166
Размер потока : 1,40 Гбайт (73%)
Библиотека кодирования : x264 core 146 r2538 121396c
Настройки программы : cabac=1 / ref=10 / deblock=1:-3:-3 / analyse=0x3:0x113 / me=umh / subme=11 / psy=1 / psy_rd=0.99:0.04 / mixed_ref=1 / me_range=48 / chroma_me=1 / trellis=2 / 8x8dct=1 / cqm=0 / deadzone=21,11 / fast_pskip=1 / chroma_qp_offset=-3 / threads=6 / lookahead_threads=1 / sliced_threads=0 / nr=0 / decimate=1 / interlaced=0 / bluray_compat=0 / constrained_intra=0 / bframes=11 / b_pyramid=2 / b_adapt=2 / b_bias=0 / direct=3 / weightb=1 / open_gop=0 / weightp=2 / keyint=240 / keyint_min=23 / scenecut=40 / intra_refresh=0 / rc_lookahead=40 / rc=2pass / mbtree=0 / bitrate=2258 / ratetol=1.0 / qcomp=0.60 / qpmin=0 / qpmax=69 / qpstep=4 / cplxblur=20.0 / qblur=0.5 / vbv_maxrate=50000 / vbv_bufsize=62500 / nal_hrd=none / filler=0 / ip_ratio=1.40 / pb_ratio=1.30 / aq=1:1.00
Язык : English
Default : Да
Forced : Нет

Аудио #1
Идентификатор : 2
Формат : AC-3
Формат/Информация : Audio Coding 3
Расширение режима : CM (complete main)
Параметр Endianness формата : Big
Идентификатор кодека : A_AC3
Продолжительность : 1 ч. 28 м.
Вид битрейта : Постоянный
Битрейт : 384 Кбит/сек
Каналы : 6 каналов
Расположение каналов : Front: L C R, Side: L R, LFE
Частота : 48,0 КГц
Частота кадров : 31,250 кадров/сек (1536 spf)
Битовая глубина : 16 бит
Метод сжатия : С потерями
Размер потока : 244 Мбайт (12%)
Заголовок : DUB [iTunes]
Язык : Russian
Default : Да
Forced : Нет

Аудио #2
Идентификатор : 3
Формат : AC-3
Формат/Информация : Audio Coding 3
Расширение режима : CM (complete main)
Параметр Endianness формата : Big
Идентификатор кодека : A_AC3
Продолжительность : 1 ч. 28 м.
Вид битрейта : Постоянный
Битрейт : 448 Кбит/сек
Каналы : 6 каналов
Расположение каналов : Front: L C R, Side: L R, LFE
Частота : 48,0 КГц
Частота кадров : 31,250 кадров/сек (1536 spf)
Битовая глубина : 16 бит
Метод сжатия : С потерями
Размер потока : 285 Мбайт (15%)
Заголовок : [Original]
Язык : English
Default : Нет
Forced : Нет

Текст #1
Идентификатор : 4
Формат : UTF-8
Идентификатор кодека : S_TEXT/UTF8
Идентификатор кодека/Информация : UTF-8 Plain Text
Продолжительность : 1 ч. 23 м.
Битрейт : 58 бит/сек
Count of elements : 1155
Размер потока : 35,6 Кбайт (0%)
Заголовок : Full
Язык : English
Default : Нет
Forced : Нет

Текст #2
Идентификатор : 5
Формат : UTF-8
Идентификатор кодека : S_TEXT/UTF8
Идентификатор кодека/Информация : UTF-8 Plain Text
Продолжительность : 1 ч. 23 м.
Битрейт : 73 бит/сек
Count of elements : 1467
Размер потока : 44,9 Кбайт (0%)
Заголовок : SDH
Язык : English
Default : Нет
Forced : Нет

Меню
00:00:00.000 : en:Chapter 01
00:04:28.977 : en:Chapter 02
00:12:09.979 : en:Chapter 03
00:15:44.026 : en:Chapter 04
00:22:44.029 : en:Chapter 05
00:28:22.242 : en:Chapter 06
00:35:17.365 : en:Chapter 07
00:40:37.226 : en:Chapter 08
00:43:37.781 : en:Chapter 09
00:49:16.620 : en:Chapter 10
00:53:22.407 : en:Chapter 11
01:00:07.770 : en:Chapter 12
01:06:43.582 : en:Chapter 13
01:11:33.455 : en:Chapter 14
01:16:33.589 : en:Chapter 15
01:21:53.325 : en:Chapter 16

pb.wtf



Скачать Хэллфест через торрент https://i110.fastpic.ru/big/2019/0125/51/9193629691dcb09e9e4546f170eca251.jpg Скачать фильм Хэллфест через торрент бесплантно в хорошем качестве Описание: Три подруги встречаются накануне Хэллоуина и вместе со своими парнями решают отметить праздник походом на Хэллфест, популярный ... 10 10 9
Торрент: Зарегистрирован [2019-01-25 05:30] · скачан: 252 раз
Статус: √ проверено
Размер: 1.91 GB
Как cкачать? Как скачать Хэллфест через торрент | qTorrent

% Раздел Тема Автор DL S | L
Фильмы 2018 [DVDrip, WEB-DLRip, HDrip] (DUB, MVO) [ 1.42 GB ] Хэллфест / Hell Fest [2018 BDRip] - Twi7ter Скачать
1 | 0
Фильмы (Blu-ray, BD-Remux, HDDVD) [ 24.94 GB ] Хэллфест / Hell Fest [2018 BD Remux 1080p] bober100 Скачать
1 | 0
Ultra HD (UHD: 2K, 4K, 8K) — видео сверхвысокой чёткости [ 11.8 GB ] Хэллфест / Hell Fest [2018 UHD BDRip 2160p] bober100 Скачать
1 | 0
Ultra HD (UHD: 2K, 4K, 8K) — видео сверхвысокой чёткости [ 44.23 GB ] Хэллфест / Hell Fest [2018 UHD BDRemux 2160p] [ ] [Dolby Vision TV] sheker187 Скачать
1 | 0
Ultra HD (UHD: 2K, 4K, 8K) — видео сверхвысокой чёткости [ 43.67 GB ] Хэллфест / Hell Fest [2018 UHD BDRemux 2160p] bober100 Скачать
1 | 0
Ultra HD (UHD: 2K, 4K, 8K) — видео сверхвысокой чёткости [ 55.95 GB ] Хэллфест / Hell Fest [2018 UHD Blu-ray 2160p] [Dolby Vision] bober100 Скачать
1 | 0
Фильмы 2018 [DVDrip, WEB-DLRip, HDrip] (DUB, MVO) [ 745 MB ] Хэллфест / Hell Fest [2018 BDRip] bober100 Скачать
1 | 0

28-11-2019 20:33  

Отключить всю рекламу на сайте

    Дорогой пользователь! Огромная просьба, поблагодарите релизера, оцените раздачу и оставьте свои комментарий, если Вы скачали Хэллфест через торрент бесплатно! Внесите свою лепту в развитие PiratBit!
    Комментировать посты могут только пользователи прошедшие не сложную регистрацию
    Показать сообщения:    

    Хэллфест через торрент
    Скачать бесплатно Хэллфест
    Хэллфест скачать торрент
    Хэллфест смотреть онлайн
    Cкачать фильм Хэллфест бесплатно
    Хэллфест скачать торрент в хорошем качестве
    Хэллфест смотреть онлайн бесплатно в хорошем качестве


    Вы не можете начинать темы
    Вы не можете отвечать на сообщения
    Вы не можете редактировать свои сообщения
    Вы не можете удалять свои сообщения
    Вы не можете голосовать в опросах
    Вы не можете прикреплять файлы к сообщениям
    Вы можете скачивать файлы