MEGA SALE -50% FORZA HORIZON 4 ULTIMATE+ВСЕ DLC+ОНЛАЙН всего за 599р. 299 руб. (супер цена). Внимание количество ограничено!!!

iTunes

1+1

iTunes

мы

iTunes

1

iTunes

Чернобыль

iTunes

Ральф против интернета

Лицензия

ПШазам

Лицензия

Игра престолов

Лицензия

30
pack

ВАЖНО

!!Акция!!

Alien_RageХит недели

RePack

Resident Evil 21

ИГРА 18+

pack

RePack

Metro:Exodus

!!Акция!!

Alien_Rage

RePack

fifa19

RePack

Assassins Creed: Odyssey

RePack

NEED FOR SPEED™ PAYBACK

3 сезон

9 сезон

Бесстыжие 9 сезон

Все сериалы

все сериалы на PB.wtf

RePack

FAR CRY 5
Ребята, катастрофически не хватает 7730р. для оплаты серверов за ИЮЛЬ (всвязи с блокировками трафик упал в 3 раза), 1-2р., выручайте.
  

Гранд Тур / The Grand Tour / Сезон 3 / Серии 1-14 из 14 [2019., Авто-шоу, WEB-DLRip] [MVO] (Alexfilm) pb.wtf

Гранд Тур через торрент pb.wtf

Размер: 20.77 GB | Добавлен: 3 мес. 29 д. назад | Торрент скачан:26 раз
Скачать  

25-01-2019 08:35 Гранд Тур Скачать торрент  

Гранд Тур / The Grand Tour

Год выпуска: 2019
Страна: Великобритания
Жанр: Авто-шоу
Продолжительность: ~ 01:10:00
Перевод: Профессиональный (многоголосый закадровый) | AlexFilm
Режиссёр: Фил Чурчуорд, Кит Линч Робинсон, Брайан Клейн
В ролях: Джереми Кларксон, Ричард Хаммонд, Джеймс Мэй
Описание: "Гранд Тур" — это новое автомобильное телешоу, созданное бывшими ведущими Top Gear — Джереми Кларксоном, Ричардом Хаммондом и Джеймсом Мэйем. Зрителей ждут автомобильные обзоры, приключения по всему миру, встречи со знаменитостями и юмор, который является непременным атрибутом каждого выпуска.

Релиз:

rating

Качество: WEB-DLRip
Формат: MP4
Видео: 1024x576; 25 fps; h264; ~2500 kbps
Аудио #1: Russian, 48kHz; stereo; AAC; 160 kbps
Аудио #2: English, 48kHz; stereo; AAC; 160 kbps
Субтитры: Русские, английские
Реклама: Отсутствует

Общее
Полное имя : G:\Раздачи\Video\Grand Tour Season 3 [iPad] 576p\The.Grand.Tour.2019.S03E01.Motown.Funk.1080p.AMZN.WEB-DL.DD5.1.x264-QOQ.mp4
Формат : MPEG-4
Профиль формата : Base Media
Идентификатор кодека : isom (isom/iso2/avc1/mp41)
Размер файла : 1,39 Гбайт
Продолжительность : 1 ч. 8 м.
Режим общего битрейта : Переменный
Общий поток : 2878 Кбит/сек
Коллекция : Гранд Тур (The Grand Tour)
Сезон : 3
Альбом : Гранд Тур (The Grand Tour), Сезон 3
Альбом/Исполнитель : Гранд Тур (The Grand Tour)
Часть : 1
Часть/Положение : 3
Трек : Motown Funk
Трек/Положение : 1
Исполнитель : Гранд Тур (The Grand Tour)
Режиссёр : Фил Чурчуорд (Phil Churchward) / Брайан Клейн (Brian Klein) / Кит Линч Робинсон (Kit Lynch Robinson)
Исполнитель : Джереми Кларксон (Jeremy Clarkson) / Ричард Хаммонд (Richard Hammond) / Джеймс Мэй (James May) / Майк Скиннер (Mike Skinner)
Продюсер : Ричард Эванс (Richard Evans)
Жанр : Comedy
Тип содержимого : TV Show
Дата записи : UTC 2019-01-18 07:00:00
Дата пометки : UTC 2019-01-24 19:56:06
Программа кодирования : MkvToMp4 [www.mkvtomp4.ru] version: 0.224 (x64)
Обложка : Yes
Vendor : Apple:vendor_id:2016-982730-101
ContentRating : us-tv|TV-14|500|
Part_ID : 0301
Title/Sort : Гранд Тур (The Grand Tour)
LongDescription : Джереми, Ричард и Джеймс водят какие-то машины

Видео
Идентификатор : 1
Формат : AVC
Формат/Информация : Advanced Video Codec
Профиль формата : Main@L3.1
Параметр CABAC формата : Да
Параметр ReFrames формата : 7 кадров
Идентификатор кодека : avc1
Идентификатор кодека/Информация : Advanced Video Coding
Продолжительность : 1 ч. 8 м.
Битрейт : 2547 Кбит/сек
Ширина : 1024 пикселя
Высота : 576 пикселей
Соотношение сторон : 16:9
Режим частоты кадров : Постоянный
Частота кадров : 25,000 кадров/сек
Цветовое пространство : YUV
Субдискретизация насыщенности : 4:2:0
Битовая глубина : 8 бит
Тип развёртки : Прогрессивная
Бит/(Пиксели*Кадры) : 0.173
Размер потока : 1,23 Гбайт (89%)
Заголовок : Release by EniaHD / Release by EniaHD
Библиотека кодирования : x264 core 157 r2935 545de2f
Настройки программы : cabac=1 / ref=7 / deblock=1:-2:-2 / analyse=0x1:0x131 / me=umh / subme=9 / psy=1 / psy_rd=1.00:0.20 / mixed_ref=1 / me_range=24 / chroma_me=1 / trellis=1 / 8x8dct=0 / cqm=0 / deadzone=21,11 / fast_pskip=1 / chroma_qp_offset=-3 / threads=7 / lookahead_threads=1 / sliced_threads=0 / nr=0 / decimate=1 / interlaced=0 / bluray_compat=0 / constrained_intra=0 / bframes=9 / b_pyramid=0 / b_adapt=2 / b_bias=0 / direct=3 / weightb=1 / open_gop=0 / weightp=2 / keyint=250 / keyint_min=25 / scenecut=40 / intra_refresh=0 / rc_lookahead=40 / rc=crf / mbtree=1 / crf=19.0 / qcomp=0.60 / qpmin=0 / qpmax=69 / qpstep=4 / vbv_maxrate=14000 / vbv_bufsize=14000 / crf_max=30.0 / nal_hrd=none / filler=0 / ip_ratio=1.40 / aq=1:1.00
Цветовой диапазон : Limited
Основные цвета : BT.709
Характеристики трансфера : BT.709
Коэффициенты матрицы : BT.709
Menus : 7

Аудио #1
Идентификатор : 2
Формат : AAC
Формат/Информация : Advanced Audio Codec
Профиль формата : LC
Идентификатор кодека : 40
Продолжительность : 1 ч. 8 м.
Вид битрейта : Переменный
Битрейт : 160 Кбит/сек
Максимальный битрейт : 164 Кбит/сек
Каналы : 2 канала
Расположение каналов : Front: L R
Частота : 48,0 КГц
Частота кадров : 46,875 кадров/сек (1024 spf)
Метод сжатия : С потерями
Размер потока : 78,9 Мбайт (6%)
Заголовок : AlexFilm / AlexFilm
Язык : Russian
Default : Да
Alternate group : 1
Menus : 6

Аудио #2
Идентификатор : 3
Формат : AAC
Формат/Информация : Advanced Audio Codec
Профиль формата : LC
Идентификатор кодека : 40
Продолжительность : 1 ч. 8 м.
Вид битрейта : Переменный
Битрейт : 160 Кбит/сек
Максимальный битрейт : 164 Кбит/сек
Каналы : 2 канала
Расположение каналов : Front: L R
Частота : 48,0 КГц
Частота кадров : 46,875 кадров/сек (1024 spf)
Метод сжатия : С потерями
Размер потока : 78,9 Мбайт (6%)
Язык : English
Default : Нет
Alternate group : 1
Menus : 6

Текст #1
Идентификатор : 4
Формат : Timed Text
Режим смешивания : sbtl
Идентификатор кодека : tx3g
Продолжительность : 1 ч. 8 м.
Вид битрейта : Переменный
Битрейт : 147 бит/сек
Размер потока : 73,6 Кбайт (0%)
Заголовок : Full / Full
Язык : Russian
Default : Да
Forced : Нет
Alternate group : 2
Menus : 6

Текст #2
Идентификатор : 5
Формат : Timed Text
Режим смешивания : sbtl
Идентификатор кодека : tx3g
Продолжительность : 1 ч. 8 м.
Вид битрейта : Переменный
Битрейт : 95 бит/сек
Размер потока : 47,5 Кбайт (0%)
Заголовок : Full / Full
Язык : English
Default : Нет
Forced : Нет
Alternate group : 2
Menus : 6

Меню
Идентификатор : 7
Идентификатор кодека : text
Продолжительность : 1 ч. 8 м.
Дата кодирования : UTC 2019-01-24 19:53:57
Дата пометки : UTC 2019-01-24 19:53:57
Menu For : 1
00:00:00.000 : Amazon Original
00:00:05.000 : Title Sequence
00:00:55.000 : What to expect this season
00:03:37.000 : The Grand Tour is off to The Motor City
00:10:31.000 : The joy of muscle cars
00:12:25.000 : Drag racing through the streets of Detroit
00:18:16.000 : Who can make the most noise
00:24:58.000 : Setting out to find food
00:27:33.000 : Conversation Street
00:33:59.000 : Jeremy test drives the new McLaren P1 and the Senna
00:42:03.000 : Jeremy makes another bet
00:46:13.000 : Time to build a race track
00:53:36.000 : The Demon vs The Exorcist vs The Blue Nun
00:58:20.000 : Jeremy gives the audience the power to choose
01:00:20.000 : Good vs Evil
01:06:35.000 : What makes a muscle car?
01:08:18.000 : End Credits
Вид битрейта : VBR

скриншот  скриншот  скриншот  
Когда раздача ведётся путём добавления новых серий, при каждом добавлении создётся новый торрент. Чтобы начать докачку новой серии, пользователям необходимо сделать следующее:
(1) остановить скачивание,
(2) удалить старый торрент у себя из клиента (старые серии удалять не надо),
(3) скачать новый торрент и запустить его у себя в клиенте вместо старого, при этом указать клиенту путь в старую папку, куда и должно происходить скачивание новых серий.
Ваш клиент при этом должен произвести хеширование (проверку) старой папки (если не производит сам - помогите ему сделать это), и будет докачивать только те серии, которых у вас ещё нет. Старые серии при этом не удаляются, а продолжают раздаваться!
Eсли вы уже удалили старые серии, то предотвратить повторную закачку старых серий можно, отжав галочку в соответсвующих местах при запуске нового торрента. По возможности, желательно не удалять старые серии как можно дольше, чтобы релизёр не столько продолжал раздавать старые серии, а смог сконцентрироваться на новых.

pb.wtf



Скачать Гранд Тур через торрент https://i99.fastpic.ru/big/2018/0222/ec/ad7b560148800bb1c8bf663b0bf9eaec.png Скачать фильм Гранд Тур через торрент бесплантно в хорошем качестве Описание: "Гранд Тур" — это новое автомобильное телешоу, созданное бывшими ведущими Top Gear — Джереми Кларксоном, Ричардом Хаммондом и ... 8.9 10 8
Торрент: Зарегистрирован [2019-04-25 18:03] · скачан: 26 раз
Статус: √ проверено
Размер: 20.77 GB
Как cкачать? Как скачать Гранд Тур через торрент | qTorrent

% Раздел Тема Автор DL S | L
Автоспорт [ 102.65 GB ] Гранд Тур / The Grand Tour / Сезон: 3 / Серии: 1-14 из 14 [2019 Авто-шоу UHD WEBRip 2160p] [HDR10] MVO [AlexFilm] bober100 Скачать
1 | 0
Автоспорт [ 66.91 GB ] Гранд Тур / The Grand Tour / Сезон: 3 / Серии: 1-14 из 14 [2019 Авто-шоу WEB-DL 1080p] MVO [AlexFilm] bober100 Скачать
3 | 1
Автоспорт [ 40.44 GB ] Гранд Тур / The Grand Tour / Сезон: 3 / Серии: 1-14 из 14 [2019 Авто-шоу WEB-DL 720p] MVO [AlexFilm] bober100 Скачать
2 | 1
Автоспорт [ 63.13 GB ] Гранд Тур / The Grand Tour / Сезон 3 / Серии 1-14 из 14 [2019. Авто-шоу WEBRip 1080p] [MVO] killermax2013 Скачать
1 | 1
Автоспорт [ 10.75 GB ] Гранд Тур / The Grand Tour / Сезон: 3 / Серии: 1-14 из 14 [2019. Авто-шоу WEBRip] [MVO] killermax2013 Скачать
3 | 0
Автоспорт [ 35 GB ] Гранд Тур / The Grand Tour / Сезон: 3 / Серии: 1-14 из 14 [2019. Авто-шоу WEBRip 720p] [MVO] killermax2013 Скачать
1 | 0
Автоспорт [ 59.22 GB ] Гранд Тур / The Grand Tour / Сезон: 3 / Серии: 1-14 из 14 [2019. Авто-шоу WEBRip 1080p] [MVO] killermax2013 Скачать
2 | 0


>> Регистрируемся здесь <<






Отзывы и комментарии о схеме читаем и пишем здесь: ---> Отзывы и комментарии о схеме

Новые благодарочки в телеграм довольных пользователей:
скриншот   скриншот   скриншот   скриншот   скриншот

22-05-2019 01:20 Гранд Тур Скачать торрент  

, с топ гиром рядом не стоит эта помойка, больше базарят как бабки.....pb.wtf



    Дорогой пользователь! Огромная просьба, поблагодарите релизера, оцените раздачу и оставьте свои комментарий, если Вы скачали Гранд Тур через торрент бесплатно! Внесите свою лепту в развитие PiratBit!
    Комментировать посты могут только пользователи прошедшие не сложную регистрацию
    Показать сообщения:    

    Гранд Тур через торрент
    Скачать бесплатно Гранд Тур
    Гранд Тур скачать торрент
    Гранд Тур смотреть онлайн
    Cкачать фильм Гранд Тур бесплатно
    Гранд Тур скачать торрент в хорошем качестве
    Гранд Тур смотреть онлайн бесплатно в хорошем качестве


    Вы не можете начинать темы
    Вы не можете отвечать на сообщения
    Вы не можете редактировать свои сообщения
    Вы не можете удалять свои сообщения
    Вы не можете голосовать в опросах
    Вы не можете прикреплять файлы к сообщениям
    Вы можете скачивать файлы