Ссылка на приватное зеркало нашего сайта всего за 1$. Внимание количество ограничено!!!

2 сезон

iTunes

1 сезон

1

iTunes

iTunes

iTunes

1 сезон

RePack

30

ИГРА 18+

pack

ВАЖНО

!!Акция!!

Alien_RageХит недели

RePack

MK11
pack

Забери бонус

RePack

jed

!!Акция!!

Alien_Rage

RePack

fifa19

RePack

Assassins Creed: Odyssey

RePack

NEED FOR SPEED™ PAYBACK

4 сезон

9 сезон

Бесстыжие 9 сезон

Все сериалы

все сериалы на PB.wtf

RePack

FAR CRY 5
  

Сборник мультфильмов. Клуб весёлых человечков. (Борис Дежкин, Петр Носов, Вахтанг Бахтадзе) [1959-1965, СССР, мультфильм, короткометражка, DVDRip-AVC, SATRip-AVC, VHSRip-AVC от AVP Studio] pb.wtf

Сборник мультфильмов. Клуб весёлых человечков. через торрент pb.wtf

Раздают: 13 [ 22 KB/s ]
Размер: 1.09 GB | Добавлен: 1 год 8 мес. назад | Торрент скачан:89 раз
Скачать  

25-01-2019 09:52 Сборник мультфильмов. Клуб весёлых человечков. Скачать торрент  

Ровно в три пятнадцать, Винтик и Шпунтик – веселые мастера, Незнайка учится, Самоделкин-спортсмен, Где я его видел?
Страна: СССР
Производство: Союзмультфильм

Жанр: мультфильм, короткометражка
Год выпуска: 1959-1965
Продолжительность: (01:32:23) 00:19:56, 00:18:55, 00:20:00, 00:23:38, 00:09:54

Перевод: не требуется
Оригинальная аудиодорожка: русский
Cубтитры: нет

Режиссер: Борис Дежкин, Петр Носов, Вахтанг Бахтадзе

Описание:
Ровно в три пятнадцать... (1959) Музыкальная сказка-шутка с участием Чипполино, Буратино, Петрушки и других героев.
Винтик и Шпунтик – веселые мастера (1960) Экранизация современной сказки Н. Носова о человечках-инструментах Винтике и Шпунтике, которые умело решают разные технические трудности.
Незнайка учится (1961) По сказке Николая Носова «Приключения Незнайки и его друзей».
Самоделкин-спортсмен (1962) Самоделкин — необычный металлический человечек, его тело состоит из батарейки, пружин, болта, а вместо носа у него винтик.
Где я его видел? (1965) В клуб веселых человечков приходит Обещалкин. он просит принять его в клуб и обещает приготовить концертный номер для выступления.

Исходник: DVD5 R5, DVB, VHS
Качество: DVDRip-AVC, SATRip-AVC, VHSRip-AVC
Формат: MKV

Видео: 696->761x572 (4:3), 25 fps, H264 ~ 1493 kbps avg, 0.150 bit/pixel
Аудио: 48 kHz, Dolby Digital AC3 2,0, 192 kbps

Раздача от:
Общее
Полное имя : Klub.vesyolyh.chelovechkov.1959-65.Rip-AVC_[New-team]_by_AVP_Studio.mkv
Формат : Matroska
Версия формата : Version 2
Размер файла : 241 Мбайт
Продолжительность : 19 м. 55 с.
Общий поток : 1687 Кбит/сек
Дата кодирования : UTC 2019-01-24 13:45:06
Программа кодирования : mkvmerge v6.1.0 ('Old Devil') built on Mar 4 2013 09:10:42
Библиотека кодирования : libebml v1.3.0 + libmatroska v1.4.0

Видео
Идентификатор : 1
Формат : AVC
Формат/Информация : Advanced Video Codec
Профиль формата : High@L4.1
Настройки формата : CABAC / 10 Ref Frames
Параметр CABAC формата : Да
Параметр RefFrames формата : 10 кадров
Идентификатор кодека : V_MPEG4/ISO/AVC
Продолжительность : 19 м. 55 с.
Битрейт : 1493 Кбит/сек
Ширина : 696 пикселей
Высота : 572 пикселя
Соотношение сторон : 4:3
Режим частоты кадров : Постоянный
Частота кадров : 25,000 кадров/сек
Цветовое пространство : YUV
Субдискретизация насыщенности : 4:2:0
Битовая глубина : 8 бит
Тип развёртки : Прогрессивная
Бит/(Пиксели*Кадры) : 0.150
Размер потока : 208 Мбайт (87%)
Библиотека кодирования : x264 core 157 r2932 303c484
Настройки программы : cabac=1 / ref=10 / deblock=1:-2:-1 / analyse=0x3:0x113 / me=umh / subme=10 / psy=1 / psy_rd=1.00:0.00 / mixed_ref=1 / me_range=32 / chroma_me=1 / trellis=2 / 8x8dct=1 / cqm=0 / deadzone=21,11 / fast_pskip=1 / chroma_qp_offset=-2 / threads=6 / lookahead_threads=1 / sliced_threads=0 / nr=0 / decimate=0 / interlaced=0 / bluray_compat=0 / constrained_intra=0 / bframes=8 / b_pyramid=2 / b_adapt=2 / b_bias=0 / direct=3 / weightb=1 / open_gop=0 / weightp=2 / keyint=250 / keyint_min=25 / scenecut=40 / intra_refresh=0 / rc=2pass / mbtree=0 / bitrate=1493 / ratetol=1.0 / qcomp=0.60 / qpmin=0 / qpmax=69 / qpstep=4 / cplxblur=20.0 / qblur=0.5 / ip_ratio=1.40 / pb_ratio=1.30 / aq=1:1.00
Default : Да
Forced : Нет

Аудио
Идентификатор : 2
Формат : AC-3
Формат/Информация : Audio Coding 3
Коммерческое название : Dolby Digital
Идентификатор кодека : A_AC3
Продолжительность : 19 м. 55 с.
Вид битрейта : Постоянный
Битрейт : 192 Кбит/сек
Каналы : 2 канала
Channel layout : L R
Частота : 48,0 КГц
Частота кадров : 31,250 кадров/сек (1536 SPF)
Битовая глубина : 16 бит
Метод сжатия : С потерями
Размер потока : 27,4 Мбайт (11%)
Default : Да
Forced : Нет
pb.wtf



Скачать Сборник мультфильмов. Клуб весёлых человечков. через торрент http://d.radikal.ru/d19/2001/1e/6fd4b00ab1e9.png Скачать фильм Сборник мультфильмов. Клуб весёлых человечков. через торрент бесплантно в хорошем качестве Описание:Ровно в три пятнадцать... (1959) Музыкальная сказка-шутка с участием Чипполино, Буратино, Петрушки и других героев.Винтик и ... 10 10 1
Info! Золотая раздача, скачанное не засчитывается.
Торрент: Зарегистрирован [2019-01-25 09:52] · скачан: 89 раз
Статус: √ проверено
Размер: 1.09 GB
Как cкачать? Как скачать Сборник мультфильмов. Клуб весёлых человечков. через торрент | qTorrent

% Раздел Тема Автор DL S | L
Короткометражные мультфильмы [ 1.08 GB ] Сборник мультфильмов. Клуб весёлых человечков. [1959-1965 СССР мультфильм короткометражка DVDRip SATRip VHSRip от AVP Studio] AVP Studio Скачать
1 | 0

28-11-2019 20:33  

Отключить всю рекламу на сайте

    Дорогой пользователь! Огромная просьба, поблагодарите релизера, оцените раздачу и оставьте свои комментарий, если Вы скачали Сборник мультфильмов. Клуб весёлых человечков. через торрент бесплатно! Внесите свою лепту в развитие PiratBit!
    Комментировать посты могут только пользователи прошедшие не сложную регистрацию
    Показать сообщения:    

    Сборник мультфильмов. Клуб весёлых человечков. через торрент
    Скачать бесплатно Сборник мультфильмов. Клуб весёлых человечков.
    Сборник мультфильмов. Клуб весёлых человечков. скачать торрент
    Сборник мультфильмов. Клуб весёлых человечков. смотреть онлайн
    Cкачать фильм Сборник мультфильмов. Клуб весёлых человечков. бесплатно
    Сборник мультфильмов. Клуб весёлых человечков. скачать торрент в хорошем качестве
    Сборник мультфильмов. Клуб весёлых человечков. смотреть онлайн бесплатно в хорошем качестве


    Вы не можете начинать темы
    Вы не можете отвечать на сообщения
    Вы не можете редактировать свои сообщения
    Вы не можете удалять свои сообщения
    Вы не можете голосовать в опросах
    Вы не можете прикреплять файлы к сообщениям
    Вы можете скачивать файлы