Ссылка на приватное зеркало нашего сайта всего за 1$. Внимание количество ограничено!!!

2 сезон

iTunes

1 сезон

1

2 сезон

2 сезон

iTunes

1 сезон

RePack

30

Ultimate

ВАЖНО

ИГРА 18+

pack

RePack

MK11
pack

Забери бонус

RePack

jed

!!Акция!!

Alien_Rage

RePack

fifa19

RePack

Assassins Creed: Odyssey

RePack

NEED FOR SPEED™ PAYBACK

4 сезон

9 сезон

Бесстыжие 9 сезон

Все сериалы

все сериалы на PB.wtf

RePack

FAR CRY 5
  

Королевство / Kingdom / Сезон: 1 / Серии 1-6 из 6 (Ким Сон-хун) [2019, Ужасы, боевик, триллер, WEBRip 1080p] [MVO] (HDRezka Studio) pb.wtf

Королевство через торрент pb.wtf

Качают: 1 [ 0 KB/s ]
Размер: 14.32 GB | Добавлен: 9 мес. назад | Торрент скачан:111 раз
Скачать  

25-01-2019 12:18 Королевство Скачать торрент  

Королевство / Kingdom
Информация о сериале

Год выпуска: 2019
Жанр: Ужасы, боевик, триллер
Страна: Корея Южная, США
Продолжительность: 1 x ~ 00:55:00
Перевод: Профессиональный (многоголосый) *HDRezka Studio*
Субтитры: русские (forced)

Режиссер: Ким Сон-хун

В ролях: Чу Джи-хун, Рю Сын-нён, Пэ Ду-на, Ким Сан-хо, Хо Джун-хо, Ким Сон-гю, Чон Сок-хо, Ким Хе-джун, Чон Сог-вон, Чин Сон-гю

О фильме: Зомби-эпидемия разворачивается в период династии Чосон. Долго болевший правитель умирает, но возвращается к жизни в виде плотоядной нежити и начинает бродить по дворцу, поэтому наследному принцу приходится расследовать причины произошедшего и спасать страну от быстро распространяющейся заразы.

rating

Файл

Качество: WEBRip 1080p
Формат: MKV
Видео: MPEG-4 AVC, ~ 4727 Кбит/с, 1920x1080
Звук: Русский / AC3 / 2 Ch / 192kbs
скриншот  скриншот  скриншот  
General
Unique ID : 21905812654669365926718678055204905757 (0x107AE7F334B1457AB3118D1B7F33631D)
Complete name : F:\Kingdom.2019.S01.1080p\Kingdom.S01E01.WEBRip.1080p.rus.2.0.HDREZKA.STUDIO.mkv
Format : Matroska
Format version : Version 4 / Version 2
File size : 2.07 GiB
Duration : 58mn 57s
Overall bit rate mode : Variable
Overall bit rate : 5 019 Kbps
Encoded date : UTC 2020-02-21 13:21:38
Writing application : mkvmerge v28.2.0 ('The Awakening') 64-bit
Writing library : libebml v1.3.6 + libmatroska v1.4.9

Video
ID : 1
Format : AVC
Format/Info : Advanced Video Codec
Format profile : High@L4.1
Format settings, CABAC : Yes
Format settings, ReFrames : 1 frame
Codec ID : V_MPEG4/ISO/AVC
Duration : 58mn 57s
Bit rate mode : Variable
Bit rate : 4 727 Kbps
Maximum bit rate : 2 000 Kbps
Width : 1 920 pixels
Height : 1 080 pixels
Display aspect ratio : 16:9
Frame rate mode : Constant
Frame rate : 23.976 fps
Color space : YUV
Chroma subsampling : 4:2:0
Bit depth : 8 bits
Scan type : Progressive
Bits/(Pixel*Frame) : 0.095
Stream size : 1.95 GiB (94%)
Default : Yes
Forced : No

Audio
ID : 2
Format : AC-3
Format/Info : Audio Coding 3
Mode extension : CM (complete main)
Format settings, Endianness : Big
Codec ID : A_AC3
Duration : 58mn 57s
Bit rate mode : Constant
Bit rate : 192 Kbps
Channel(s) : 2 channels
Channel positions : Front: L R
Sampling rate : 48.0 KHz
Compression mode : Lossy
Stream size : 81.0 MiB (4%)
Language : Russian
Default : Yes
Forced : No
pb.wtf



Скачать Королевство через торрент https://i111.fastpic.ru/big/2020/0222/b5/50477b7fdff67f83e6de97b5545ff3b5.png Скачать фильм Королевство через торрент бесплантно в хорошем качестве О фильме: Зомби-эпидемия разворачивается в период династии Чосон. Долго болевший правитель умирает, но возвращается к жизни в виде ... 10 10 4
Торрент: Зарегистрирован [2020-02-22 10:20] · скачан: 111 раз
Статус: √ проверено
Размер: 14.32 GB
Как cкачать? Как скачать Королевство через торрент | qTorrent

% Раздел Тема Автор DL S | L
Зарубежные сериалы [ 69.03 GB ] Королевство / Kingdom / Сезон: 1 / Серии: 1-6 из 6 [2019 UHD WEBRip 2160p ] DVO [Кубик в Кубе] bober100 Скачать
1 | 0
Зарубежные сериалы [ 749 MB ] Королевство / Kingdeom / Kingdom / Сезон: 2 / Серии: 1- из 6 [2020 WEB-DLRip] MVO [LostFilm] bober100 Скачать
1 | 0
Зарубежные сериалы [ 3.8 GB ] Королевство / Kingdeom / Kingdom / Сезон: 2 / Серии: 1-6 из 6 [2020 WEB-DLRip] MVO [HDRezka] bober100 Скачать
1 | 0
Зарубежные сериалы [ 3.09 GB ] Королевство / Kingdeom / Kingdom / Сезон: 2 / Серии: 1- из 6 [2020 WEB-DL 1080p] MVO [LostFilm] bober100 Скачать
1 | 0
Зарубежные сериалы [ 13.14 GB ] Королевство / Kingdom / Сезон: 2 / Серии 1-6 из 6 [2020 WEB-DL 1080p] [MVO] killermax2013 Скачать
2 | 0
Зарубежные сериалы [ 17.03 GB ] Королевство / Kingdom / Сезон: 2 / Серии 1-6 из 6 [2020 WEBRip 1080p] [DVO] killermax2013 Скачать
1 | 0
Зарубежные сериалы [ 12.89 GB ] Королевство / Kingdom / Сезон: 1 / Серии: 1-6 из 6 [2019 WEB-DL 1080p] MVO [Jaskier] bober100 Скачать
1 | 0

28-11-2019 20:33  

Отключить всю рекламу на сайте

    Дорогой пользователь! Огромная просьба, поблагодарите релизера, оцените раздачу и оставьте свои комментарий, если Вы скачали Королевство через торрент бесплатно! Внесите свою лепту в развитие PiratBit!
    Комментировать посты могут только пользователи прошедшие не сложную регистрацию
    Показать сообщения:    

    Королевство через торрент
    Скачать бесплатно Королевство
    Королевство скачать торрент
    Королевство смотреть онлайн
    Cкачать фильм Королевство бесплатно
    Королевство скачать торрент в хорошем качестве
    Королевство смотреть онлайн бесплатно в хорошем качестве


    Вы не можете начинать темы
    Вы не можете отвечать на сообщения
    Вы не можете редактировать свои сообщения
    Вы не можете удалять свои сообщения
    Вы не можете голосовать в опросах
    Вы не можете прикреплять файлы к сообщениям
    Вы можете скачивать файлы