Присоединяйтесь к нам в Telegram!, здесь всегда актуальный адрес сайта, оперативная поддержка и многое другое!!

>

5.9

iTunes

7.4

iTunes

9.4

1 сезон

1

7.4

2 сезон

7.2

iTunes

7.3

1 сезон

13

6.1

iTunes

8.3

Пиратка

30

ULTIMATE

pack

9.9

Лицензия

ВАЖНО

ИГРА 18+

pack

7.3

RePack

MK11

7.7

RePack

jed

7.8

RePack

fifa19

8.5

RePack

RDR2

RePack

NEED FOR SPEED™ PAYBACK

5 сезон

9 сезон

Бесстыжие 9 сезон

Все сериалы

все сериалы на PB.wtf

RePack

FAR CRY 5

Anonymous, добрый день, мы катастрофически не успеваем собрать деньги на оплату серверов, помогите нам пожалуйста 5,10,15р., для нас важна любая помощь . В качестве благодарности мы отключим Вам всю рекламу на сайте (укажите свой ник в строку Ваше имя)!

×
  
Magnet ссылка

Радиорама / Radiorama - The Best Of... (1986-2005) [2005 г., Italo-Disco, DVDRip, Оригинальный] pb.wtf

Радиорама через торрент pb.wtf

Размер: 1.37 GB | Добавлен: 2 года 10 мес. назад | Торрент скачан:44 раза
Смотреть онлайн Радиорама | Скачать    Ребята, помогите собрать деньги на оплату серверов!!!

25-01-2019 15:13 Радиорама Скачать торрент  

Радиорама / Radiorama - The Best Of... (1986-2005)
Год выпуска: 2005
Страна: Италия
Жанр: Italo-Disco
Продолжительность: 00:44:31
Перевод: Оригинальный

Описание: В середине 80-х песни начинающего итальянского дуэта "Radiorama", нового детища известного итальянского продьюсера Мауро Фарина. Первым их хитом стала композиция "Chance to desire" (1984), имевшая громкий успех в Швейцарии и Германии. А в 1986 году вышел их первый альбом "Desires & Vampires". Чёткий ритм и полужуткое звуковое оформление композиций не оставили публику равнодушной, и ни одна дискотека теперь не обходилась без их хитов "Desire", "Vampires", "Hey hey" и др. Голос Мауро, лично исполнявшего все мужские партии, был признан лучшим "диско"-вокалом 80-х. Чувствовалось, однако, что группа ещё не исчерпала свой творческий потенциал. И действительно, в 1987 году композиция "Yeti" с их второго альбома "The second" буквально взорвала все танцплощадки Европы и была признана лучшим хитом года. А суперхит "Aliens" (1987) был в десятке хит-парадов всех европейских стран!
В 1988 году "Radiorama" резко сменила свой имидж: в группе появились новые вокалисты, и на место былой мрачности и жутковатости пришли задор и оптимизм. Третий их альбом подарил танцплощадкам удивительные по ритму синглы "ABCD" и "Bad girls". Однако самые преданные фанаты группы были не согласны с таким поворотом событий, для них "Radiorama" прежде всего ассоциировалась с вкрадчивым голосом Мауро Фарина.
Поэтому всё то, что группа выпустила после 1988 года они даже слушать не стали. Однако несмотря на это, вот уже более 10-ти лет "Radiorama" остаются признанными хит-мейкерами дискотек.
01 Aliens
02 Desire
03 Vampires
04 Chance To Desire
05 Fire
06 Manitu
07 Warrior
08 So I Know Swedish 12'' Remix
09 Yeti
10 Desire
Качество: DVDRip
Формат: AVI
Видео кодек: XviD
Аудио кодек: AC3
Видео: Xvid, 720x544, 25.00fps, 4 198 Kbps
Аудио: Dolby AC3,48000Hz, stereo, 192kbps
скриншот   скриншот   скриншот   скриншот  

General
Complete name : E:\radiorama.avi
Format : AVI
Format/Info : Audio Video Interleave
File size : 1.37 GiB
Duration : 44mn 31s
Overall bit rate : 4 397 Kbps
Writing application : VirtualDubMod 1.5.4.1 (build 2178/release)
Writing library : VirtualDubMod build 2178/release

Video
ID : 0
Format : MPEG-4 Visual
Format profile : Advanced Simple@L5
Format settings, BVOP : No
Format settings, QPel : No
Format settings, GMC : No warppoints
Format settings, Matrix : Custom
Codec ID : XVID
Codec ID/Hint : XviD
Duration : 44mn 31s
Bit rate : 4 198 Kbps
Width : 720 pixels
Height : 544 pixels
Display aspect ratio : 4:3
Frame rate : 25.000 fps
Color space : YUV
Chroma subsampling : 4:2:0
Bit depth : 8 bits
Scan type : Progressive
Compression mode : Lossy
Bits/(Pixel*Frame) : 0.429
Stream size : 1.31 GiB (95%)
Writing library : XviD 64

Audio
ID : 1
Format : AC-3
Format/Info : Audio Coding 3
Mode extension : CM (complete main)
Codec ID : 2000
Duration : 44mn 31s
Bit rate mode : Constant
Bit rate : 192 Kbps
Channel(s) : 2 channels
Channel positions : Front: L R
Sampling rate : 48.0 KHz
Bit depth : 16 bits
Compression mode : Lossy
Stream size : 61.1 MiB (4%)
Alignment : Split accross interleaves
Interleave, duration : 96 ms (2.40 video frames)
Interleave, preload duration : 96 ms

pb.wtf



Скачать Радиорама через торрент https://pic1.kartinco.top/images/12/3amst.jpg Скачать, смотреть онлайн Радиорама бесплантно в хорошем качестве Описание: В середине 80-х песни начинающего итальянского дуэта "Radiorama", нового детища известного итальянского продьюсера Мауро Фарина. ... 9 10 2
Info! Золотая раздача, скачанное не засчитывается.
Торрент: Зарегистрирован [2019-01-25 15:13] · скачан: 44 раз
Статус: √ проверено
Размер: 1.37 GB
Как cкачать? Как скачать Радиорама через торрент | UTorrent

28-11-2019 20:33  

Отключить всю рекламу на сайте

26-01-2019 14:29 Радиорама Скачать торрент  

pb.wtf



    Дорогой пользователь! Огромная просьба, поблагодарите релизера, оцените раздачу и оставьте свои комментарий, если Вы скачали Радиорама через торрент бесплатно!
    Комментировать посты могут только пользователи прошедшие не сложную регистрацию
    Показать сообщения:    

    Радиорама через торрент
    Скачать бесплатно Радиорама
    Радиорама скачать торрент
    Радиорама смотреть онлайн
    Cкачать фильм Радиорама бесплатно
    Радиорама скачать торрент в хорошем качестве
    Радиорама смотреть онлайн бесплатно в хорошем качестве


    Вы не можете начинать темы
    Вы не можете отвечать на сообщения
    Вы не можете редактировать свои сообщения
    Вы не можете удалять свои сообщения
    Вы не можете голосовать в опросах
    Вы не можете прикреплять файлы к сообщениям
    Вы можете скачивать файлы