Ссылка на приватное зеркало нашего сайта всего за 1$. Внимание количество ограничено!!!

2 сезон

iTunes

1 сезон

1

2 сезон

2 сезон

iTunes

1 сезон

RePack

30

Ultimate

ВАЖНО

ИГРА 18+

pack

RePack

MK11
pack

Забери бонус

RePack

jed

!!Акция!!

Alien_Rage

RePack

fifa19

RePack

Assassins Creed: Odyssey

RePack

NEED FOR SPEED™ PAYBACK

4 сезон

9 сезон

Бесстыжие 9 сезон

Все сериалы

все сериалы на PB.wtf

RePack

FAR CRY 5
  

Человек будущего / Future Man / Сезон: 2 / Серии: 1-13 из 13 (Ниша Ганатра, Эван Голдберг, Сет Роген) [2019, фантастика, комедия, WEB-DL 1080p] [MVO] (Jaskier) pb.wtf

Человек будущего через торрент pb.wtf

Размер: 12.04 GB | Добавлен: 1 год 9 мес. назад | Торрент скачан:67 раз
Скачать  

25-01-2019 17:20 Человек будущего Скачать торрент  

Человек будущего / Future Man

Год выпуска: 2019
Страна: США,
Жанр: фантастика, комедия
Продолжительность: ~ 00:28:00

Перевод: Профессиональный (многоголосый закадровый) | Jaskier [без цензуры]

Режиссёр: Ниша Ганатра, Эван Голдберг, Сет Роген

В ролях: Джош Хатчерсон, Дерек Уилсон, Эд Бегли мл, Дрю Джеймс, Роберт Крэйгхед, Джейсон Скотт Дженкинс, Кевин Калибер, Грег Брайан, Патрик Карлайл

Описание: Главный герой все еще живет с родителями и подрабатывает в исследовательском центре «Девлин», специализирующемся на сексуальных дисфункциях. Из-за болезненного периода полового созревания у Джоша низкая самооценка и плохо развиты коммуникативные навыки, поэтому юноша часто теряется в общении с женщинами. Единственное, в чем преуспевает герой, — это видеоигра Cybergeddon, действие которой происходит в мрачном будущем, где его персонаж, Человек из будущего, занимает высокую социальную позицию. Когда Джош проходит последний уровень, ему наносят визит персонажи Cybergeddon, утверждающие, что игра была всего лишь тренингом и что теперь герой избран для того, чтобы совершить путешествие в прошлое и помочь им спасти мир. Готов ли Джош к этому? Конечно, нет.



Качество: WEB-DL 1080p
Формат: MKV
Видео: X264, ~ 4400 kbps, 1920x1080 (16:9), 23,976 fps
Аудио 1: AC3, 48,0 КГц, 2 ch, 192 kbps - Rus
Аудио 2: AC3, 48,0 КГц, 2 ch, 192 kbps - Eng
Субтитры: отсутствуют
Общее
Уникальный идентификатор : 240966350924701273289009725763524831049 (0xB5486E5B7E0239D695190DE0E5952749)
Полное имя : V:\Future Man Season 2 (WEB-DL l 1080p l JASKiER)\Future.Man.S02E01.1080p.Jaskier.mkv
Формат : Matroska
Версия формата : Version 2
Размер файла : 1,02 Гбайт
Продолжительность : 27 м.
Общий поток : 5251 Кбит/сек
Дата кодирования : UTC 2019-01-24 07:25:19
Программа кодирования : mkvmerge v7.8.0 ('River Man') 32bit built on Apr 3 2015 12:11:22
Библиотека кодирования : libebml v1.3.1 + libmatroska v1.4.2

Видео
Идентификатор : 1
Формат : AVC
Формат/Информация : Advanced Video Codec
Профиль формата : High@L4
Параметр CABAC формата : Да
Параметр ReFrames формата : 4 кадра
Идентификатор кодека : V_MPEG4/ISO/AVC
Продолжительность : 27 м.
Битрейт : 4763 Кбит/сек
Ширина : 1920 пикселей
Высота : 1080 пикселей
Соотношение сторон : 16:9
Режим частоты кадров : Постоянный
Частота кадров : 23,976 (24000/1001) кадра/сек
Цветовое пространство : YUV
Субдискретизация насыщенности : 4:2:0
Битовая глубина : 8 бит
Тип развёртки : Прогрессивная
Бит/(Пиксели*Кадры) : 0.096
Размер потока : 947 Мбайт (91%)
Язык : English
Default : Да
Forced : Нет

Аудио #1
Идентификатор : 2
Формат : AC-3
Формат/Информация : Audio Coding 3
Расширение режима : CM (complete main)
Параметр Endianness формата : Big
Идентификатор кодека : A_AC3
Продолжительность : 27 м.
Вид битрейта : Постоянный
Битрейт : 192 Кбит/сек
Каналы : 2 канала
Расположение каналов : Front: L R
Частота : 48,0 КГц
Частота кадров : 31,250 кадров/сек (1536 spf)
Метод сжатия : С потерями
Размер потока : 38,2 Мбайт (4%)
Язык : Russian
Default : Да
Forced : Нет

Аудио #2
Идентификатор : 3
Формат : AC-3
Формат/Информация : Audio Coding 3
Расширение режима : CM (complete main)
Параметр Endianness формата : Big
Идентификатор кодека : A_AC3
Продолжительность : 27 м.
Вид битрейта : Постоянный
Битрейт : 192 Кбит/сек
Каналы : 2 канала
Расположение каналов : Front: L R
Частота : 48,0 КГц
Частота кадров : 31,250 кадров/сек (1536 spf)
Метод сжатия : С потерями
Размер потока : 38,2 Мбайт (4%)
Язык : English
Default : Нет
Forced : Нет
скриншот  скриншот  скриншот  
Когда раздача ведётся путём добавления новых серий, при каждом добавлении создётся новый торрент. Чтобы начать докачку новой серии, пользователям необходимо сделать следующее:
(1) остановить скачивание,
(2) удалить старый торрент у себя из клиента (старые серии удалять не надо),
(3) скачать новый торрент и запустить его у себя в клиенте вместо старого, при этом указать клиенту путь в старую папку, куда и должно происходить скачивание новых серий.
Ваш клиент при этом должен произвести хеширование (проверку) старой папки (если не производит сам - помогите ему сделать это), и будет докачивать только те серии, которых у вас ещё нет. Старые серии при этом не удаляются, а продолжают раздаваться!
Eсли вы уже удалили старые серии, то предотвратить повторную закачку старых серий можно, отжав галочку в соответсвующих местах при запуске нового торрента. По возможности, желательно не удалять старые серии как можно дольше, чтобы релизёр не столько продолжал раздавать старые серии, а смог сконцентрироваться на новых.
pb.wtf



Скачать Человек будущего через торрент https://i84.fastpic.ru/big/2019/0125/a5/83034b5e9b66b903a747d2698a19f5a5.png Скачать фильм Человек будущего через торрент бесплантно в хорошем качестве Описание: Главный герой все еще живет с родителями и подрабатывает в исследовательском центре «Девлин», специализирующемся на сексуальных ... 10 10 1
Торрент: Зарегистрирован [2019-01-29 16:43] · скачан: 67 раз
Статус: √ проверено
Размер: 12.04 GB
Как cкачать? Как скачать Человек будущего через торрент | qTorrent

% Раздел Тема Автор DL S | L
Зарубежные сериалы [ 15.32 GB ] Человек будущего / Future Man / Сезон: 2 / Серии 1-13 из 13 [2019 WEBRip 1080p] [MVO] killermax2013 Скачать
1 | 0
Зарубежные сериалы [ 26.47 GB ] Человек будущего / Future Man / Сезон: 2 / Серии: 1-13 из 13 [2019 WEBRip 1080p] MVO [Good People] bober100 Скачать
1 | 0
Зарубежные сериалы [ 4.46 GB ] Человек будущего / Future Man / Сезон: 2 / Серии: 1-13 из 13 [2019 WEBRip] MVO [Good People] bober100 Скачать
1 | 0
Зарубежные сериалы [ 29.83 GB ] Человек будущего / Future Man / Сезон: 2 / Серии 1-13 из 13 [2019 UHD WEBRip 2160p] [SDR] MVO [LostFilm] sheker187 Скачать
1 | 0
Зарубежные сериалы [ 7.13 GB ] Человек будущего / Future Man / Сезон: 2 / Серии: 1-13 из 13 [2019 WEBRip 720p] [DVO] killermax2013 Скачать
1 | 0
Зарубежные сериалы [ 6.97 GB ] Человек будущего / Future Man / Сезон: 2 / Серии: 1-13 из 13 [2019 WEBRip 720p] [MVO] killermax2013 Скачать
1 | 0
Зарубежные сериалы [ 4.2 GB ] Человек будущего / Future Man / Сезон: 2 / Серии: 1-13 из 13 [2019 WEB-DLRip] [MVO] killermax2013 Скачать
1 | 0

28-11-2019 20:33  

Отключить всю рекламу на сайте

    Дорогой пользователь! Огромная просьба, поблагодарите релизера, оцените раздачу и оставьте свои комментарий, если Вы скачали Человек будущего через торрент бесплатно! Внесите свою лепту в развитие PiratBit!
    Комментировать посты могут только пользователи прошедшие не сложную регистрацию
    Показать сообщения:    

    Человек будущего через торрент
    Скачать бесплатно Человек будущего
    Человек будущего скачать торрент
    Человек будущего смотреть онлайн
    Cкачать фильм Человек будущего бесплатно
    Человек будущего скачать торрент в хорошем качестве
    Человек будущего смотреть онлайн бесплатно в хорошем качестве


    Вы не можете начинать темы
    Вы не можете отвечать на сообщения
    Вы не можете редактировать свои сообщения
    Вы не можете удалять свои сообщения
    Вы не можете голосовать в опросах
    Вы не можете прикреплять файлы к сообщениям
    Вы можете скачивать файлы