Ссылка на приватное зеркало нашего сайта всего за 1$. Внимание количество ограничено!!!

2 сезон

iTunes

1 сезон

1

2 сезон

2 сезон

iTunes

1 сезон

RePack

30

Ultimate

ВАЖНО

ИГРА 18+

pack

RePack

MK11
pack

Забери бонус

RePack

jed

!!Акция!!

Alien_Rage

RePack

fifa19

RePack

Assassins Creed: Odyssey

RePack

NEED FOR SPEED™ PAYBACK

4 сезон

9 сезон

Бесстыжие 9 сезон

Все сериалы

все сериалы на PB.wtf

RePack

FAR CRY 5
  

Человек будущего / Future Man / Сезон: 1 / Серии: 1-13 из 13 (Ниша Ганатра, Эван Голдберг, Сет Роген) [2017, США, фантастика, комедия, WEBRip] MVO [Jaskier] pb.wtf

Человек будущего через торрент pb.wtf

Размер: 4.54 GB | Добавлен: 1 год 10 мес. назад | Торрент скачан:93 раза
Скачать  

25-01-2019 17:31 Человек будущего Скачать торрент  

Человек будущего / Future Man

Год выпуска: 2017
Страна: США
Жанр: фантастика, комедия
Продолжительность: ~ 00:28:00
Перевод: Профессиональный (многоголосый закадровый) | Jaskier [без цензуры]
Субтитры: отсутствуют

Режиссёр: Ниша Ганатра, Эван Голдберг, Сет Роген

В ролях:

жош Хатчерсон, Дерек Уилсон, Эд Бегли мл, Дрю Джеймс, Роберт Крэйгхед, Джейсон Скотт Дженкинс, Кевин Калибер, Грег Брайан, Патрик Карлайл

Описание:

Главный герой все еще живет с родителями и подрабатывает в исследовательском центре «Девлин», специализирующемся на сексуальных дисфункциях. Из-за болезненного периода полового созревания у Джоша низкая самооценка и плохо развиты коммуникативные навыки, поэтому юноша часто теряется в общении с женщинами. Единственное, в чем преуспевает герой, — это видеоигра Cybergeddon, действие которой происходит в мрачном будущем, где его персонаж, Человек из будущего, занимает высокую социальную позицию. Когда Джош проходит последний уровень, ему наносят визит персонажи Cybergeddon, утверждающие, что игра была всего лишь тренингом и что теперь герой избран для того, чтобы совершить путешествие в прошлое и помочь им спасти мир. Готов ли Джош к этому? Конечно, нет.



Качество: WEBRip
Формат: AVI

Видео: XviD, ~ 1400 kbps, 720x304, 23,976 fps
Аудио 1: MP3, 48,0 КГц, 2 ch, 128 kbps - RUS
Аудио 2: MP3, 48,0 КГц, 2 ch, 128 kbps - ENG


Реклама: аудио, два раза в начале и в конце по 13 секунд
Формат                                   : AVI
Формат/Информация                        : Audio Video Interleave
Размер файла                             : 361 Мбайт
Продолжительность                        : 30 м.
Общий поток                              : 1670 Кбит/сек
Программа кодирования                    : VirtualDubMod 1.5.10.3 | www.virtualdub-fr.org || (build 2550/release)
Библиотека кодирования                   : VirtualDubMod build 2550/release

Видео
Идентификатор                            : 0
Формат                                   : MPEG-4 Visual
Профиль формата                          : Advanced Simple@L5
Параметр BVOP формата                    : 2
Параметр QPel формата                    : Нет
Параметр GMC формата                     : Без точки перехода
Параметр матрицы формата                 : Выборочная
Идентификатор кодека                     : XVID
Идентификатор кодека/Подсказка           : XviD
Продолжительность                        : 30 м.
Битрейт                                  : 1400 Кбит/сек
Ширина                                   : 720 пикселей
Высота                                   : 304 пикселя
Соотношение сторон                       : 2,35:1
Частота кадров                           : 23,976 (23976/1000) кадра/сек
Цветовое пространство                    : YUV
Субдискретизация насыщенности            : 4:2:0
Битовая глубина                          : 8 бит
Тип развёртки                            : Прогрессивная
Метод сжатия                             : С потерями
Бит/(Пиксели*Кадры)                      : 0.267
Размер потока                            : 302 Мбайт (84%)
Библиотека кодирования                   : XviD 73

Аудио #1
Идентификатор                            : 1
Формат                                   : MPEG Audio
Версия формата                           : Version 1
Профиль формата                          : Layer 3
Режим                                    : Joint stereo
Расширение режима                        : MS Stereo
Идентификатор кодека                     : 55
Идентификатор кодека/Подсказка           : MP3
Продолжительность                        : 30 м.
Вид битрейта                             : Постоянный
Битрейт                                  : 128 Кбит/сек
Каналы                                   : 2 канала
Частота                                  : 48,0 КГц
Метод сжатия                             : С потерями
Размер потока                            : 27,7 Мбайт (8%)
Выравнивание                             : Соединение по промежуткам
Продолжительность промежутка             : 42  мс. (1,00 видеокадр)
Время предзагрузки промежутка            : 504  мс.

Аудио #2
Идентификатор                            : 2
Формат                                   : MPEG Audio
Версия формата                           : Version 1
Профиль формата                          : Layer 3
Режим                                    : Joint stereo
Расширение режима                        : MS Stereo
Идентификатор кодека                     : 55
Идентификатор кодека/Подсказка           : MP3
Продолжительность                        : 30 м.
Вид битрейта                             : Постоянный
Битрейт                                  : 128 Кбит/сек
Каналы                                   : 2 канала
Частота                                  : 48,0 КГц
Метод сжатия                             : С потерями
Размер потока                            : 27,7 Мбайт (8%)
Выравнивание                             : Соединение по промежуткам
Продолжительность промежутка             : 42  мс. (1,00 видеокадр)
Время предзагрузки промежутка            : 504  мс.
скриншот  скриншот  скриншот  
Когда раздача ведётся путём добавления новых серий, при каждом добавлении создётся новый торрент. Чтобы начать докачку новой серии, пользователям необходимо сделать следующее:
(1) остановить скачивание,
(2) удалить старый торрент у себя из клиента (старые серии удалять не надо),
(3) скачать новый торрент и запустить его у себя в клиенте вместо старого, при этом указать клиенту путь в старую папку, куда и должно происходить скачивание новых серий.
Ваш клиент при этом должен произвести хеширование (проверку) старой папки (если не производит сам - помогите ему сделать это), и будет докачивать только те серии, которых у вас ещё нет. Старые серии при этом не удаляются, а продолжают раздаваться!
Eсли вы уже удалили старые серии, то предотвратить повторную закачку старых серий можно, отжав галочку в соответсвующих местах при запуске нового торрента. По возможности, желательно не удалять старые серии как можно дольше, чтобы релизёр не столько продолжал раздавать старые серии, а смог сконцентрироваться на новых.
pb.wtf



Скачать Человек будущего через торрент http://i100.fastpic.ru/big/2018/0309/52/b47973489f4d369cca6eb2bf1f6cd852.png Скачать фильм Человек будущего через торрент бесплантно в хорошем качестве Описание: Главный герой все еще живет с родителями и подрабатывает в исследовательском центре «Девлин», специализирующемся на сексуальных ... 8.3 10 6
Торрент: Зарегистрирован [2019-01-25 17:31] · скачан: 93 раз
Статус: √ проверено
Размер: 4.54 GB
Как cкачать? Как скачать Человек будущего через торрент | qTorrent

% Раздел Тема Автор DL S | L
Зарубежные сериалы [ 22.55 GB ] Человек будущего / Future Man / Сезон: 1 / Серии 1-13 из 13 [2017 WEBRip 1080p] [MVO] killermax2013 Скачать
1 | 0
Зарубежные сериалы [ 15.32 GB ] Человек будущего / Future Man / Сезон: 2 / Серии 1-13 из 13 [2019 WEBRip 1080p] [MVO] killermax2013 Скачать
1 | 0
Зарубежные сериалы [ 7.08 GB ] Человек будущего / Future Man / Сезон: 1 / Серии: 1-13 из 13 [2017 WEB-DL 720p] [DVO] killermax2013 Скачать
1 | 0
Зарубежные сериалы [ 26.47 GB ] Человек будущего / Future Man / Сезон: 2 / Серии: 1-13 из 13 [2019 WEBRip 1080p] MVO [Good People] bober100 Скачать
1 | 0
Зарубежные сериалы [ 4.46 GB ] Человек будущего / Future Man / Сезон: 2 / Серии: 1-13 из 13 [2019 WEBRip] MVO [Good People] bober100 Скачать
1 | 0
Зарубежные сериалы [ 29.83 GB ] Человек будущего / Future Man / Сезон: 2 / Серии 1-13 из 13 [2019 UHD WEBRip 2160p] [SDR] MVO [LostFilm] sheker187 Скачать
1 | 0
Зарубежные сериалы [ 34.9 GB ] Человек будущего / Future Man / Сезон: 1 / Серии 1-13 из 13 [2017 UHD WEBRip 2160p] [SDR] 3xMVO [LostFilm NewStudio BaibaKo] sheker187 Скачать
1 | 0

28-11-2019 20:33  

Отключить всю рекламу на сайте

    Дорогой пользователь! Огромная просьба, поблагодарите релизера, оцените раздачу и оставьте свои комментарий, если Вы скачали Человек будущего через торрент бесплатно! Внесите свою лепту в развитие PiratBit!
    Комментировать посты могут только пользователи прошедшие не сложную регистрацию
    Показать сообщения:    

    Человек будущего через торрент
    Скачать бесплатно Человек будущего
    Человек будущего скачать торрент
    Человек будущего смотреть онлайн
    Cкачать фильм Человек будущего бесплатно
    Человек будущего скачать торрент в хорошем качестве
    Человек будущего смотреть онлайн бесплатно в хорошем качестве


    Вы не можете начинать темы
    Вы не можете отвечать на сообщения
    Вы не можете редактировать свои сообщения
    Вы не можете удалять свои сообщения
    Вы не можете голосовать в опросах
    Вы не можете прикреплять файлы к сообщениям
    Вы можете скачивать файлы