новый адрес
Ссылка на приватное зеркало всего за 1$. Внимание количество ограничено!!!

iTunes

1+1

iTunes

мы

iTunes

1

iTunes

Чернобыль

iTunes

Ральф против интернета

Лицензия

ПШазам

Лицензия

Оно 2

Лицензия

30
pack

Вам бонус

ВАЖНО

!!Акция!!

Alien_RageХит недели

RePack

Resident Evil 21

ИГРА 18+

pack

RePack

jed

!!Акция!!

Alien_Rage

RePack

fifa19

RePack

Assassins Creed: Odyssey

RePack

NEED FOR SPEED™ PAYBACK

3 сезон

9 сезон

Бесстыжие 9 сезон

Все сериалы

все сериалы на PB.wtf

RePack

FAR CRY 5
Ребята, катастрофически не хватает 1900р. для оплаты серверов за Октябрь (всвязи с блокировками трафик упал в 3 раза), 1-2р., выручайте.
  

Странная история доктора Джекила и мистера Хайда (Александр Орлов) [1985 г., Драма, SATRip-AVC] pb.wtf

Странная история доктора Джекила и мистера Хайда через торрент pb.wtf

Размер: 1.43 GB | Добавлен: 9 мес. назад | Торрент скачан:8 раз
Скачать  

25-01-2019 19:52 Странная история доктора Джекила и мистера Хайда Скачать торрент  

Странная история доктора Джекила и мистера Хайда
Год выпуска: 1985
Страна: СССР
Жанр: Драма
Продолжительность: 01:27:05
Субтитры: Отсутствуют

Режиссер: Александр Орлов



В ролях: Иннокентий Смоктуновский, Александр Феклистов, Алла Будницкая, Александр Лазарев, Анатолий Адоскин,
Бруно Фрейндлих, Эдуард Марцевич, Леонид Сатановский, Александр Вокач, Александр Кириллов, Татьяна Окуневская, Елена Майорова

Описание: Доктор Джекил сделал сенсационное открытие - сумел отделить в самом себе доброе начало от злого.
Это открытие он вынужден держать в тайне, ибо носитель зла, которому он дал имя мистер Хайд, стал неуправляемым...

Качество: SATRip-AVC
Формат: MKV
Видео кодек: AVC
Аудио кодек: AC3
Видео: AVC, 540х554@768x554 , 25,0fps, 2150 Kbps
Аудио#1: AC3 , 2 ch , 48 kHz , 192 kbps
скриншот   скриншот   скриншот   скриншот  

Общее
Уникальный идентификатор : 188597615841527081519021989188170829511 (0x8DE2945F48CAF79FB3B751F6F92E4EC7)
Полное имя : J:сссрСтранная история доктора Джекила и мистера Хайда 1985_SATRip-AVC_KORSAR.mkv
Формат : Matroska
Версия формата : Version 2
Размер файла : 1,43 Гбайт
Продолжительность : 1 ч. 27 м.
Общий поток : 2344 Кбит/сек
Дата кодирования : UTC 2019-01-21 07:43:12
Программа кодирования : mkvmerge v5.8.0 ('No Sleep / Pillow') built on Sep 2 2012 15:37:04
Библиотека кодирования : libebml v1.2.3 + libmatroska v1.3.0

Видео
Идентификатор : 1
Формат : AVC
Формат/Информация : Advanced Video Codec
Профиль формата : High@L4.1
Настройки формата : CABAC / 15 Ref Frames
Параметр CABAC формата : Да
Параметр RefFrames формата : 15 кадров
Идентификатор кодека : V_MPEG4/ISO/AVC
Продолжительность : 1 ч. 27 м.
Битрейт : 2150 Кбит/сек
Ширина : 540 пикселей
Высота : 554 пикселя
Соотношение сторон : 1,386
Режим частоты кадров : Постоянный
Частота кадров : 25,000 кадров/сек
Цветовое пространство : YUV
Субдискретизация насыщенности : 4:2:0
Битовая глубина : 8 бит
Тип развёртки : Прогрессивная
Бит/(Пиксели*Кадры) : 0.287
Размер потока : 1,28 Гбайт (90%)
Библиотека кодирования : x264 core 152 r2851kMod ba24899
Настройки программы : cabac=1 / ref=15 / deblock=1:-2:-2 / analyse=0x3:0x133 / me=umh / subme=11 / psy=1 / fade_compensate=0.00 / psy_rd=1.05:0.12 / mixed_ref=1 / me_range=48 / chroma_me=1 / trellis=2 / 8x8dct=1 / cqm=0 / deadzone=21,11 / fast_pskip=0 / chroma_qp_offset=-3 / threads=12 / lookahead_threads=3 / sliced_threads=0 / nr=0 / decimate=0 / interlaced=0 / bluray_compat=0 / constrained_intra=0 / bframes=11 / b_pyramid=2 / b_adapt=2 / b_bias=0 / direct=3 / weightb=1 / open_gop=0 / weightp=2 / keyint=250 / keyint_min=25 / scenecut=40 / intra_refresh=0 / rc_lookahead=40 / rc=2pass / mbtree=0 / bitrate=2150 / ratetol=1.0 / qcomp=0.60 / qpmin=0 / qpmax=39 / qpstep=4 / cplxblur=20.0 / qblur=0.5 / vbv_maxrate=50000 / vbv_bufsize=62500 / nal_hrd=none / filler=0 / ip_ratio=1.25 / pb_ratio=1.30 / aq=1:1.00
Язык : English
Default : Да
Forced : Нет
Цветовой диапазон : Limited
Основные цвета : BT.601 PAL
Характеристики трансфера : BT.470 System B, BT.470 System G
Коэффициенты матрицы : BT.470 System B, BT.470 System G

Аудио
Идентификатор : 2
Формат : AC-3
Формат/Информация : Audio Coding 3
Параметр Endianness формата : Big
Идентификатор кодека : A_AC3
Продолжительность : 1 ч. 27 м.
Вид битрейта : Постоянный
Битрейт : 192 Кбит/сек
Каналы : 2 канала
Расположение каналов : Front: L R
Частота : 48,0 КГц
Частота кадров : 31,250 кадров/сек (1536 SPF)
Битовая глубина : 16 бит
Метод сжатия : С потерями
Размер потока : 120 Мбайт (8%)
Язык : Russian
Default : Да
Forced : Нет

pb.wtf



Скачать Странная история доктора Джекила и мистера Хайда через торрент http://pic1.kartinco.top/images/12/4563s.jpg Скачать фильм Странная история доктора Джекила и мистера Хайда через торрент бесплантно в хорошем качестве Описание: Доктор Джекил сделал сенсационное открытие - сумел отделить в самом себе доброе начало от злого.Это открытие он вынужден держать ... 10 10 2
Торрент: Зарегистрирован [2019-01-25 19:52] · скачан: 8 раз
Статус: √ проверено
Размер: 1.43 GB
Как cкачать? Как скачать Странная история доктора Джекила и мистера Хайда через торрент | qTorrent

    Дорогой пользователь! Огромная просьба, поблагодарите релизера, оцените раздачу и оставьте свои комментарий, если Вы скачали Странная история доктора Джекила и мистера Хайда через торрент бесплатно! Внесите свою лепту в развитие PiratBit!
    Комментировать посты могут только пользователи прошедшие не сложную регистрацию
    Показать сообщения:    

    Странная история доктора Джекила и мистера Хайда через торрент
    Скачать бесплатно Странная история доктора Джекила и мистера Хайда
    Странная история доктора Джекила и мистера Хайда скачать торрент
    Странная история доктора Джекила и мистера Хайда смотреть онлайн
    Cкачать фильм Странная история доктора Джекила и мистера Хайда бесплатно
    Странная история доктора Джекила и мистера Хайда скачать торрент в хорошем качестве
    Странная история доктора Джекила и мистера Хайда смотреть онлайн бесплатно в хорошем качестве


    Вы не можете начинать темы
    Вы не можете отвечать на сообщения
    Вы не можете редактировать свои сообщения
    Вы не можете удалять свои сообщения
    Вы не можете голосовать в опросах
    Вы не можете прикреплять файлы к сообщениям
    Вы можете скачивать файлы