2 сезон

iTunes

MVO

1

2 сезон

iTunes

iTunes

1 сезон

RePack

30

Новинка

ВАЖНО

ИГРА 18+

pack

RePack

MK11
pack

Легкие деньги

RePack

jed

RePack

fifa19

RePack

RDR2

RePack

NEED FOR SPEED™ PAYBACK

4 сезон

9 сезон

Бесстыжие 9 сезон

Все сериалы

все сериалы на PB.wtf

RePack

FAR CRY 5

Anonymous, доброй ночи, мы не успеваем собрать деньги на оплату серверов за декабрь и январь, помогите нам пожалуйста в это трудное время. В качестве благодарности мы отключим Вам всю рекламу на сайте (укажите свой ник в строку Ваше имя)!

×
  
Magnet ссылка

Книга джунглей 3Д / The Jungle Book 3D (Джон Фавро) [2016, Фэнтези, драма, приключения, семейный, BDRip 1080p] [Half OverUnder / Вертикальная анаморфная стереопара] DUB (rus, ukr) [Лицензия] pb.wtf

Книга джунглей 3Д через торрент pb.wtf

Размер: 15.55 GB | Добавлен: 1 год 11 мес. назад | Торрент скачан:80 раз
Скачать  

25-01-2019 19:54 Книга джунглей 3Д Скачать торрент  

Книга джунглей
The Jungle Book 3D
«Легенда никогда не будет прежней»
Год выпуска: 2016
Страна: Великобритания, США
Жанр: Фэнтези, драма, приключения, семейный
Продолжительность: 01:45:54
Перевод: Дублированный | Лицензия
Субтитры (SRT):
Вшитые (softsub):
#1 - Русские Форсированные (включены по умолчанию)
#2 - Русские Полные
#3 - Украинские Полные
#4 - English Full
#5 - English SDH

Внешние (UTF-8):
#1 - Русские Форсированные (включены по умолчанию)

Режиссер: Джон Фавро

rating

В ролях:

Нил Сети, Билл Мюррэй, Бен Кингсли, Идрис Эльба, Лупита Нионго, Скарлетт Йоханссон, Джанкарло Эспозито, Кристофер Уокен, Гарри Шендлинг

Описание:

Непримиримая борьба с опасным и страшным тигром Шерханом вынуждает Маугли покинуть волчью стаю и отправиться в деревню к людям. На пути мальчика ждут удивительные открытия и захватывающие приключения с пантерой Багирой, медведем Балу, питоном Каа и другими обитателями дремучих джунглей.

Качество: BDRip 1080p
Формат: MKV

Видео: AVC / 1920х1080p / 23,976 fps / 18.7 Mbps
Аудио#1: Русский / AC3 / 48 KHz / 5.1 ch / 640 Kbps (Дубляж - BD CEE)
Аудио#2: Украинский / AC3 / 48 KHz / 5.1 ch / 640 Kbps (Дубляж - Disney / Buena Vista)
Аудио#3: Английский / AC3 / 48 KHz / 5.1 ch / 640 Kbps (Original - BD 3D)


Формат 3D: Half OverUnder / Вертикальная анаморфная стереопара
Порядок ракурсов: левый ракурс первый
скриншот  скриншот  скриншот  скриншот  скриншот  

General
Unique ID : 217838844229360888607399309850012610360 (0xA3E23C3D9DFE51569ECBB8C4766CEF38)
Complete name : E:TheJungleBook(2016)3D-halfOU(Ash61)TheJungleBook(2016)3D-halfOU(Ash61).mkv
Format : Matroska
Format version : Version 2
File size : 15.5 GiB
Duration : 1h 45mn
Overall bit rate : 21.0 Mbps
Movie name : Книга джунглей / The Jungle Book (2016) в 3Д
Encoded date : UTC 2016-08-28 08:14:45
Writing application : mkvmerge v5.8.0 ('No Sleep / Pillow') built on Sep 2 2012 15:37:04
Writing library : libebml v1.2.3 + libmatroska v1.3.0

Video
ID : 1
Format : AVC
Format/Info : Advanced Video Codec
Format profile : High@L4.1
Format settings, CABAC : Yes
Format settings, ReFrames : 4 frames
Codec ID : V_MPEG4/ISO/AVC
Duration : 1h 45mn
Bit rate : 18.7 Mbps
Width : 1 920 pixels
Height : 1 080 pixels
Display aspect ratio : 16:9
Frame rate mode : Constant
Frame rate : 23.976 fps
Color space : YUV
Chroma subsampling : 4:2:0
Bit depth : 8 bits
Scan type : Progressive
Bits/(Pixel*Frame) : 0.375
Stream size : 13.8 GiB (89%)
Title : BDRip by Ash61
Writing library : x264 core 146 r2538 121396c
Encoding settings : cabac=1 / ref=4 / deblock=1:-3:-3 / analyse=0x3:0x113 / me=umh / subme=10 / psy=1 / psy_rd=1.00:0.00 / mixed_ref=1 / me_range=32 / chroma_me=1 / trellis=2 / 8x8dct=1 / cqm=0 / deadzone=21,11 / fast_pskip=1 / chroma_qp_offset=-2 / threads=12 / lookahead_threads=3 / sliced_threads=0 / nr=0 / decimate=1 / interlaced=0 / bluray_compat=0 / constrained_intra=0 / bframes=14 / b_pyramid=2 / b_adapt=2 / b_bias=0 / direct=3 / weightb=1 / open_gop=0 / weightp=2 / keyint=250 / keyint_min=23 / scenecut=40 / intra_refresh=0 / rc_lookahead=60 / rc=crf / mbtree=1 / crf=16.0 / qcomp=0.70 / qpmin=0 / qpmax=69 / qpstep=4 / vbv_maxrate=40000 / vbv_bufsize=30000 / crf_max=0.0 / nal_hrd=none / filler=0 / frame-packing=4 / ip_ratio=1.40 / aq=1:0.70
Language : English
Default : Yes
Forced : No

Audio #1
ID : 2
Format : AC-3
Format/Info : Audio Coding 3
Mode extension : CM (complete main)
Format settings, Endianness : Big
Codec ID : A_AC3
Duration : 1h 45mn
Bit rate mode : Constant
Bit rate : 640 Kbps
Channel(s) : 6 channels
Channel positions : Front: L C R, Side: L R, LFE
Sampling rate : 48.0 KHz
Bit depth : 16 bits
Compression mode : Lossy
Stream size : 485 MiB (3%)
Title : Дубляж - BD CEE
Language : Russian
Default : Yes
Forced : No

Audio #2
ID : 3
Format : AC-3
Format/Info : Audio Coding 3
Mode extension : CM (complete main)
Format settings, Endianness : Big
Codec ID : A_AC3
Duration : 1h 45mn
Bit rate mode : Constant
Bit rate : 640 Kbps
Channel(s) : 6 channels
Channel positions : Front: L C R, Side: L R, LFE
Sampling rate : 48.0 KHz
Bit depth : 16 bits
Compression mode : Lossy
Stream size : 485 MiB (3%)
Title : Дубляж - Disney / Buena Vista
Language : Ukrainian
Default : No
Forced : No

Audio #3
ID : 4
Format : AC-3
Format/Info : Audio Coding 3
Mode extension : CM (complete main)
Format settings, Endianness : Big
Codec ID : A_AC3
Duration : 1h 45mn
Bit rate mode : Constant
Bit rate : 640 Kbps
Channel(s) : 6 channels
Channel positions : Front: L C R, Side: L R, LFE
Sampling rate : 48.0 KHz
Bit depth : 16 bits
Compression mode : Lossy
Stream size : 485 MiB (3%)
Title : Original
Language : English
Default : No
Forced : No

Text #1
ID : 5
Format : UTF-8
Codec ID : S_TEXT/UTF8
Codec ID/Info : UTF-8 Plain Text
Title : Форсированные
Language : Russian
Default : Yes
Forced : No

Text #2
ID : 6
Format : UTF-8
Codec ID : S_TEXT/UTF8
Codec ID/Info : UTF-8 Plain Text
Title : Полные
Language : Russian
Default : No
Forced : No

Text #3
ID : 7
Format : UTF-8
Codec ID : S_TEXT/UTF8
Codec ID/Info : UTF-8 Plain Text
Title : Полные
Language : Ukrainian
Default : No
Forced : No

Text #4
ID : 8
Format : UTF-8
Codec ID : S_TEXT/UTF8
Codec ID/Info : UTF-8 Plain Text
Title : Full
Language : English
Default : No
Forced : No

Text #5
ID : 9
Format : UTF-8
Codec ID : S_TEXT/UTF8
Codec ID/Info : UTF-8 Plain Text
Title : SDH
Language : English
Default : No
Forced : No

Menu
00:00:00.000 : : 1. Opening Title
00:00:48.213 : : 2. Running with Wolves
00:05:15.314 : : 3. Water Truce
00:09:02.456 : : 4. A Warning
00:12:42.177 : : 5. Mowgli Leaves the Pack
00:16:34.451 : : 6. Shere Khan Attacks
00:21:20.028 : : 7. Akela's Plea
00:27:15.133 : : 8. Kaa
00:35:04.143 : : 9. Baloo's Honey
00:43:21.724 : : 10. The Mowgli Way
00:48:05.132 : : 11. "The Bare Necessities"
00:53:29.246 : : 12. Saving the Elephant
00:58:03.271 : : 13. Monkey Abduction
01:05:46.442 : : 14. "I Wan'na Be Like You"
01:10:35.520 : : 15. Monkey Escape
01:17:01.323 : : 16. The Red Flower
01:20:48.926 : : 17. The Law of the Jungle
01:24:46.537 : : 18. The Final Battle
01:30:32.969 : : 19. Celebration
01:35:53.203 : : 20. End Credits

pb.wtf



Скачать Книга джунглей 3Д через торрент http://i78.fastpic.ru/big/2016/0817/db/06cb7abdb82c9717d2837e8bc9e4acdb.png Скачать фильм Книга джунглей 3Д через торрент бесплантно в хорошем качестве Описание: Непримиримая борьба с опасным и страшным тигром Шерханом вынуждает Маугли покинуть волчью стаю и отправиться в деревню к людям. ... 10 10 2
Торрент: Зарегистрирован [2019-01-25 19:54] · скачан: 80 раз
Статус: √ проверено
Размер: 15.55 GB
Как cкачать? Как скачать Книга джунглей 3Д через торрент | UTorrent

% Раздел Тема Автор DL S | L
3D Фильмы [ 21.93 GB ] Книга джунглей в 3Д / The Jungle Book 3D [2016 BDrip 1080p] OverUnder / Вертикальная стереопара serega768 Скачать
1 | 0

28-11-2019 20:33  

Отключить всю рекламу на сайте

    Дорогой пользователь! Огромная просьба, поблагодарите релизера, оцените раздачу и оставьте свои комментарий, если Вы скачали Книга джунглей 3Д через торрент бесплатно! Внесите свою лепту в развитие PiratBit!
    Комментировать посты могут только пользователи прошедшие не сложную регистрацию
    Показать сообщения:    

    Книга джунглей 3Д через торрент
    Скачать бесплатно Книга джунглей 3Д
    Книга джунглей 3Д скачать торрент
    Книга джунглей 3Д смотреть онлайн
    Cкачать фильм Книга джунглей 3Д бесплатно
    Книга джунглей 3Д скачать торрент в хорошем качестве
    Книга джунглей 3Д смотреть онлайн бесплатно в хорошем качестве


    Вы не можете начинать темы
    Вы не можете отвечать на сообщения
    Вы не можете редактировать свои сообщения
    Вы не можете удалять свои сообщения
    Вы не можете голосовать в опросах
    Вы не можете прикреплять файлы к сообщениям
    Вы можете скачивать файлы