Присоединяйтесь к нам в Telegram!, здесь всегда актуальный адрес сайта, оперативная поддержка и многое другое!!

>

5.9

iTunes

7.4

iTunes

9.4

1 сезон

1

7.4

2 сезон

7.2

iTunes

7.3

1 сезон

13

6.1

iTunes

8.3

GOG

30

ULTIMATE

pack

9.9

Лицензия

ВАЖНО

ИГРА 18+

pack

7.3

RePack

MK11

7.7

RePack

jed

7.8

RePack

fifa19

8.5

RePack

RDR2

RePack

NEED FOR SPEED™ PAYBACK

5 сезон

9 сезон

Бесстыжие 9 сезон

Все сериалы

все сериалы на PB.wtf

RePack

FAR CRY 5

Anonymous, доброе утро, мы катастрофически не успеваем собрать деньги на оплату серверов, помогите нам пожалуйста 5,10,15р., для нас важна любая помощь . В качестве благодарности мы отключим Вам всю рекламу на сайте (укажите свой ник в строку Ваше имя)!

×
  
Magnet ссылка

Chris Norman and Smokie - The Video Hits Collection [2016 г., Поп-рок, Рок-н-ролл, Поп-музыка, WEBRip, Оригинальный] pb.wtf

Chris Norman and Smokie - The Video Hits Collection через торрент pb.wtf

Размер: 806 MB | Добавлен: 2 года 10 мес. назад | Торрент скачан:18 раз
Смотреть онлайн Chris Norman and Smokie - The Video Hits Collection | Скачать    Ребята, помогите собрать деньги на оплату серверов!!!

25-01-2019 23:40 Chris Norman and Smokie - The Video Hits Collection Скачать торрент  

Chris Norman and Smokie - The Video Hits Collection

Исполнитель: Chris Norman, Smokie

Год выпуска: 2016
Страна: Россия Студия: MOM RecordsHD
Жанр: Поп-рок, Рок-н-ролл, Поп-музыка
Продолжительность: 01:00:31
Перевод: Оригинальный

О группе: В биографии есть всё – любовь и смерть, нищета и богатство, безвестность и бешеный успех. И уже более тридцати лет эти музыканты вызывают у почтеннейшей публики неподдельный интерес.
01. Needles & Pins 02. Don' t Play Your Rock' n' Roll To Me
03. Run To Me
04. Something' s Been Making Me Blue
05. If You Think You Know How To Love Me
06. What Can I Do
07. It' s Your Life
08. Living Next Door To Alice
09. Mexican Girl
10. Oh Carol
11. Needles & Pins
12. Stumblin' In ( feat Suzi Quatro )
13. Broken Heroes
14. Midnight Lady
15. No Arms Can Ever Hold You
16. I Need Your Love ( feat Suzi Quatro )
17. If You Need My Love Tonight
18. Baby I Miss You 19. Be My Baby
Качество: WEBRip
Формат: AVI
Видео кодек: XviD
Аудио кодек: MP3
Видео: 704x400 (1.76:1), 23.976 fps, XviD build 65 ~1723 kbps avg, 0.26 bit/pixel
Аудио#1: 44.100 kHz, MPEG Layer 3, 2 ch, ~128.00 kbps avg
Общее
Полное имя : D:\torrent\Новая загрузка(док)\Chris.Norman.and.Smokie-The.Video.Hits.Collection.2016.XviD..avi
Формат : AVI
Формат/Информация : Audio Video Interleave
Размер файла : 806 Мбайт
Продолжительность : 1 ч. 0 м.
Общий поток : 1861 Кбит/сек
Программа кодирования : VirtualDubMod 1.5.10.3 | www.virtualdub-fr.org || (build 2550/release)
Библиотека кодирования : VirtualDub build 35491/release

Видео
Идентификатор : 0
Формат : MPEG-4 Visual
Профиль формата : Advanced Simple@L5
Настройки формата : BVOP2 / Custom Matrix
Параметр BVOP формата : 2
Параметр QPel формата : Нет
Параметр GMC формата : Без точки перехода
Параметр матрицы формата : Выборочная
Идентификатор кодека : XVID
Идентификатор кодека/Подсказка : XviD
Продолжительность : 1 ч. 0 м.
Битрейт : 1724 Кбит/сек
Ширина : 704 пикселя
Высота : 400 пикселей
Соотношение сторон : 16:9
Частота кадров : 23,976 (24000/1001) кадра/сек
Частота кадров в оригинале : 23,976 (23976/1000) кадра/сек
Цветовое пространство : YUV
Субдискретизация насыщенности : 4:2:0
Битовая глубина : 8 бит
Тип развёртки : Прогрессивная
Метод сжатия : С потерями
Бит/(Пиксели*Кадры) : 0.255
Размер потока : 746 Мбайт (93%)
Библиотека кодирования : XviD 65

Аудио
Идентификатор : 1
Формат : MPEG Audio
Версия формата : Version 1
Профиль формата : Layer 3
Настройки формата : Joint stereo / MS Stereo
Идентификатор кодека : 55
Идентификатор кодека/Подсказка : MP3
Продолжительность : 1 ч. 0 м.
Вид битрейта : Постоянный
Битрейт : 128 Кбит/сек
Каналы : 2 канала
Частота : 44,1 КГц
Метод сжатия : С потерями
Размер потока : 55,4 Мбайт (7%)
Выравнивание : Разделение по промежуткам
Продолжительность промежутка : 42 мс. (1,00 видеокадр)
Время предзагрузки промежутка : 500 мс.
Библиотека кодирования : LAME3.99.5

pb.wtf



Скачать Chris Norman and Smokie - The Video Hits Collection через торрент https://pic1.kartinco.top/images/12/fqflo.jpg Скачать, смотреть онлайн Chris Norman and Smokie - The Video Hits Collection [2016 г., Поп-рок, Рок-н-ролл, Поп-музыка, WEBRip, Оригинальный] бесплантно в хорошем качестве Трэклист Needles & Pins Don' t Play Your Rock' n' Roll To Me Run To Me Something' s Been Making Me Blue If You Think You ... 9.5 10 4
Торрент: Зарегистрирован [2019-01-25 23:40] · скачан: 18 раз
Статус: √ проверено
Размер: 806 MB
Как cкачать? Как скачать Chris Norman and Smokie - The Video Hits Collection через торрент | UTorrent

28-11-2019 20:33  

Отключить всю рекламу на сайте

    Дорогой пользователь! Огромная просьба, поблагодарите релизера, оцените раздачу и оставьте свои комментарий, если Вы скачали Chris Norman and Smokie - The Video Hits Collection через торрент бесплатно!
    Комментировать посты могут только пользователи прошедшие не сложную регистрацию
    Показать сообщения:    

    Chris Norman and Smokie - The Video Hits Collection через торрент
    Скачать бесплатно Chris Norman and Smokie - The Video Hits Collection
    Chris Norman and Smokie - The Video Hits Collection скачать торрент
    Chris Norman and Smokie - The Video Hits Collection смотреть онлайн
    Cкачать фильм Chris Norman and Smokie - The Video Hits Collection бесплатно
    Chris Norman and Smokie - The Video Hits Collection скачать торрент в хорошем качестве
    Chris Norman and Smokie - The Video Hits Collection смотреть онлайн бесплатно в хорошем качестве


    Вы не можете начинать темы
    Вы не можете отвечать на сообщения
    Вы не можете редактировать свои сообщения
    Вы не можете удалять свои сообщения
    Вы не можете голосовать в опросах
    Вы не можете прикреплять файлы к сообщениям
    Вы можете скачивать файлы