Мега распродажа FORZA HORIZON 4 ULTIMATE+ВСЕ DLC+ОНЛАЙН всего за 499р. 349 руб. (супер цена). Внимание количество ограничено!!!

Лицензия

30

iTunes

мы

iTunes

1

1 сезон

Чернобыль

1 сезон

Ральф против интернета

MVO

Покемон. Детектив Пикачу

8 сезон

Игра престолов

iTunes

1+1

ИГРА 18+

pack

ВАЖНО

!!Акция!!

Alien_RageХит недели

RePack

Resident Evil 21
pack

RePack

Metro:Exodus

!!Акция!!

Alien_Rage

RePack

fifa19

RePack

Assassins Creed: Odyssey

RePack

NEED FOR SPEED™ PAYBACK

3 сезон

9 сезон

Бесстыжие 9 сезон

Все сериалы

все сериалы на PB.wtf

RePack

FAR CRY 5
Ребята, катастрофически не хватает 2730р. для оплаты серверов за МАЙ (всвязи с блокировками трафик упал в 3 раза), 1-2р., выручайте.
  

Летящие сквозь ночь / Nightflyers / Сезон: 1 / Серии: 1-10 из 10 (Эндрю МакКарти, Мэгги Кили, Майк Кэхилл) [2018, Ужасы, фантастика, WEBRip 1080p] MVO [NewStudio] pb.wtf

Летящие сквозь ночь через торрент pb.wtf

Размер: 12.76 GB | Добавлен: 4 мес. 22 д. назад | Торрент скачан:37 раз
Скачать  

26-01-2019 02:05 Летящие сквозь ночь Скачать торрент  

Летящие сквозь ночь | Nightflyers Год выпуска: 2018
Страна: США
Жанр: Ужасы, фантастика
Продолжительность: ~00:50:00
Перевод: Профессиональный (многоголосый закадровый) | NewStudio
Субтитры: Русские (Forced |NewStudio|, Full |PhysKids|), английские (SDH)

Режиссёр: Эндрю МакКарти, Мэгги Кили, Майк Кэхилл

В ролях:

Бронте Кармайкл, Филлип Риз, Миранда Рэйсон, Гвинн Мак-Элвеен, Андреа Доленте, Юссеф Керкур, Лоуренс Фалконер, Гретхен Мол, Оуэн Мэкен, Дэвид Аджала

Описание:

Отправляемся в далёкий 2093 год, где судьба родной человеческой планеты висит на волоске. Именно поэтому люди предпринимают попытку спасения Земли. Они организуют экспедицию к далеким звездам и планетам за границами солнечной системы. Где-то на границах галактики найдены следы инопланетного космического корабля, который может стать путем к спасению Земли. Однако вскоре становится ясно, что операция просто так не завершится, ведь даже бортовой компьютер оказывается против человеческого проникновения на палубу чужого корабля. Кто бы что ни говорил, но впереди главных героев ждет поистине кошмарное испытание.




Качество: WEBRip 1080p
Контейнер: MKV

Видео: 1920x1080, 23.976 fps, MPEG-4 AVC, ~ 4000 Кбит/сек
Аудио Rus: 48 kHz, AC3, 3/2 (L,C,R,l,r) + LFE ch, 384 Кбит/сек | NewStudio
Аудио Eng: 48 kHz, E-AC3, 3/2 (L,C,R,l,r) + LFE ch, 640 Кбит/сек
• Очистка от рекламы: Wanterlude
01. Все, что мы оставили позади / All That We Left Behind
02. Факелы и вилы / Torches and Pitchforks
03. Бездна смотрит в тебя / The Abyss Stares Back
04. Белый Кролик / White Rabbit
05. Серокрылый / Greywing
06. Сакральный дар / The Sacred Gift
07. Послание / Transmission
08. Перерождение / Rebirth
09. Икар / Icarus
10. Все, что мы нашли / All That We Have Found
Общее
Уникальный идентификатор : 204800887599545938476735284103534027874 (0x9A1337594F3C2DD26CC0991665532462)
Полное имя : E:\Nightflyers.S01.1080p.NewStudio.(Wanterlude)\Nightflyers.S01E01.All.That.We.Left.Behind.1080p.NewStudio.(Wanterlude).mkv
Формат : Matroska
Версия формата : Version 4
Размер файла : 1,93 Гбайт
Продолжительность : 58 м. 20 с.
Общий поток : 4733 Кбит/сек
Название фильма : Nightflyers | Ep 01 | NewStudio
Дата кодирования : UTC 2018-12-16 22:28:42
Программа кодирования : mkvmerge v29.0.0 ('Like It Or Not') 64-bit
Библиотека кодирования : libebml v1.3.6 + libmatroska v1.4.9

Видео
Идентификатор : 1
Формат : AVC
Формат/Информация : Advanced Video Codec
Профиль формата : High@L4
Настройки формата : CABAC / 4 Ref Frames
Параметр CABAC формата : Да
Параметр RefFrames формата : 4 кадра
Идентификатор кодека : V_MPEG4/ISO/AVC
Продолжительность : 58 м. 20 с.
Битрейт : 3707 Кбит/сек
Ширина : 1920 пикселей
Высота : 1080 пикселей
Соотношение сторон : 16:9
Режим частоты кадров : Постоянный
Частота кадров : 23,976 (24000/1001) кадра/сек
Цветовое пространство : YUV
Субдискретизация насыщенности : 4:2:0
Битовая глубина : 8 бит
Тип развёртки : Прогрессивная
Бит/(Пиксели*Кадры) : 0.075
Размер потока : 1,51 Гбайт (78%)
Заголовок : Nightflyers | Ep 01 | NewStudio
Default : Да
Forced : Нет
Цветовой диапазон : Limited
Основные цвета : BT.709
Характеристики трансфера : BT.709
Коэффициенты матрицы : BT.709

Аудио #1
Идентификатор : 2
Формат : AC-3
Формат/Информация : Audio Coding 3
Коммерческое название : Dolby Digital
Идентификатор кодека : A_AC3
Продолжительность : 58 м. 20 с.
Вид битрейта : Постоянный
Битрейт : 384 Кбит/сек
Каналы : 6 каналов
Channel layout : L R C LFE Ls Rs
Частота : 48,0 КГц
Частота кадров : 31,250 кадров/сек (1536 SPF)
Битовая глубина : 16 бит
Метод сжатия : С потерями
Размер потока : 160 Мбайт (8%)
Заголовок : NewStudio | Wanterlude
Язык : Russian
ServiceKind/String : Complete Main
Default : Да
Forced : Да

Аудио #2
Идентификатор : 3
Формат : E-AC-3
Формат/Информация : Enhanced AC-3
Коммерческое название : Dolby Digital Plus
Идентификатор кодека : A_EAC3
Продолжительность : 58 м. 20 с.
Вид битрейта : Постоянный
Битрейт : 640 Кбит/сек
Каналы : 6 каналов
Channel layout : L R C LFE Ls Rs
Частота : 48,0 КГц
Частота кадров : 31,250 кадров/сек (1536 SPF)
Метод сжатия : С потерями
Размер потока : 267 Мбайт (14%)
Заголовок : English
Язык : English
ServiceKind/String : Complete Main
Default : Нет
Forced : Нет

Текст #1
Идентификатор : 4
Формат : ASS
Идентификатор кодека : S_TEXT/ASS
Идентификатор кодека/Информация : Advanced Sub Station Alpha
Продолжительность : 17 м. 31 с.
Битрейт : 1 бит/сек
ElementCount : 3
Метод сжатия : Без потерь
Размер потока : 220 байт (0%)
Заголовок : Russian (Forced)
Язык : Russian
Default : Да
Forced : Да

Текст #2
Идентификатор : 5
Формат : UTF-8
Идентификатор кодека : S_TEXT/UTF8
Идентификатор кодека/Информация : UTF-8 Plain Text
Продолжительность : 56 м. 21 с.
Битрейт : 73 бит/сек
ElementCount : 735
Размер потока : 30,4 Кбайт (0%)
Заголовок : Russian (Full)
Язык : Russian
Default : Нет
Forced : Нет

Текст #3
Идентификатор : 6
Формат : UTF-8
Идентификатор кодека : S_TEXT/UTF8
Идентификатор кодека/Информация : UTF-8 Plain Text
Продолжительность : 57 м. 15 с.
Битрейт : 55 бит/сек
ElementCount : 1117
Размер потока : 23,1 Кбайт (0%)
Заголовок : English (SDH)
Язык : English
Default : Нет
Forced : Нет
скриншот  скриншот  скриншот  скриншот  
Внимание! Раздача ведётся путём добавления новых серий; при каждом добавлении создаётся новый торрент. Чтобы начать докачку новой серии, пользователям необходимо сделать следующее:
(1) остановить скачивание,
(2) удалить старый торрент у себя из клиента (старые серии удалять не надо),
(3) скачать новый торрент и запустить его у себя в клиенте вместо старого, при этом указать клиенту путь в старую папку куда и должно происходить скачивание новых серий.

Ваш клиент при этом должен произвести хеширование (проверку) старой папки (если не производит сам - помогите ему сделать это), и будет докачивать только те серии которых у вас ещё нет. Старые серии при этом не удаляются, а продолжают раздаваться!

Eсли вы уже удалили старые серии, то предотвратить повторную закачку старых серий можно, отжав галочку в соответствующих местах при запуске нового торрента. По возможности, желательно не удалять старые серии как можно дольше чтобы релизёр не столько продолжал раздавать старые серии, а смог сконцентрироваться на новых.
pb.wtf



Скачать Летящие сквозь ночь через торрент https://i107.fastpic.ru/big/2018/1217/0a/e694372dcec19379b62b43a1d40c910a.png Скачать фильм Летящие сквозь ночь через торрент бесплантно в хорошем качестве Описание: Отправляемся в далёкий 2093 год, где судьба родной человеческой планеты висит на волоске. Именно поэтому люди предпринимают ... 10 10 5
Торрент: Зарегистрирован [2019-01-26 02:05] · скачан: 37 раз
Статус: √ проверено
Размер: 12.76 GB
Как cкачать? Как скачать Летящие сквозь ночь через торрент | qTorrent

% Раздел Тема Автор DL S | L
Зарубежные сериалы [ 5.47 GB ] Летящие сквозь ночь / Nightflyers / Сезон: 1 / Серии: 1-10 из 10 [2018 WEBRip] MVO [KosharaSerials] bober100 Скачать
1 | 2
Зарубежные сериалы [ 12.71 GB ] Летящие сквозь ночь / Nightflyers / Сезон: 1 / Серия: 1-10 из 10 [2018 WEBRip 720p] [DVO] killermax2013 Скачать
1 | 0
Зарубежные сериалы [ 14.15 GB ] Летящие сквозь ночь / Nightflyers / Сезон 1 / Серии 1-10 из 10 [2018 WEB-DL 1080p] MVO [Jaskier] bober100 Скачать
1 | 0
Зарубежные сериалы [ 5.75 GB ] Летящие сквозь ночь / Nightflyers / Сезон: 1 / Серии: 1-10 из 10 [2018 WEB-DLRip] MVO [LostFilm] bober100 Скачать
1 | 0
Зарубежные сериалы [ 13.24 GB ] Летящие сквозь ночь / Nightflyers / Сезон: 1 / Серии: 1-10 из 10 [2018 WEB-DL 1080p] MVO [LostFilm] bober100 Скачать
1 | 0
Зарубежные сериалы [ 5.31 GB ] Летящие сквозь ночь / Nightflyers / Manifest / Сезон: 1 / Серии: 1-10 из 10 [2018 WEBRip] [MVO] killermax2013 Скачать
1 | 0
Зарубежные сериалы [ 5.19 GB ] Летящие сквозь ночь / Nightflyers / Сезон: 1 / Серия: 1-10 из 10 [2018 WEB-DLRip] [MVO] killermax2013 Скачать
2 | 0


>> Регистрируемся здесь <<






Отзывы и комментарии о схеме читаем и пишем здесь: ---> Отзывы и комментарии о схеме

Новые благодарочки в телеграм довольных пользователей:
скриншот   скриншот   скриншот   скриншот   скриншот

26-01-2019 02:09 Летящие сквозь ночь Скачать торрент  

Норм ужастик?pb.wtf



26-01-2019 06:54 Летящие сквозь ночь Скачать торрент  

Знаете что бесит вот на это хороший сериал оценки 6.0 а про проблядей и трансеврогеев 9.0 куда мля мир катится а обьясните ?(pb.wtf



    Дорогой пользователь! Огромная просьба, поблагодарите релизера, оцените раздачу и оставьте свои комментарий, если Вы скачали Летящие сквозь ночь через торрент бесплатно! Внесите свою лепту в развитие PiratBit!
    Комментировать посты могут только пользователи прошедшие не сложную регистрацию
    Показать сообщения:    

    Летящие сквозь ночь через торрент
    Скачать бесплатно Летящие сквозь ночь
    Летящие сквозь ночь скачать торрент
    Летящие сквозь ночь смотреть онлайн
    Cкачать фильм Летящие сквозь ночь бесплатно
    Летящие сквозь ночь скачать торрент в хорошем качестве
    Летящие сквозь ночь смотреть онлайн бесплатно в хорошем качестве


    Вы не можете начинать темы
    Вы не можете отвечать на сообщения
    Вы не можете редактировать свои сообщения
    Вы не можете удалять свои сообщения
    Вы не можете голосовать в опросах
    Вы не можете прикреплять файлы к сообщениям
    Вы можете скачивать файлы