Ссылка на приватное зеркало нашего сайта всего за 1$. Внимание количество ограничено!!!

2 сезон

iTunes

1 сезон

1

2 сезон

2 сезон

iTunes

1 сезон

RePack

30

Новинка

ВАЖНО

ИГРА 18+

pack

RePack

MK11
pack

Забери бонус

RePack

jed

!!Акция!!

Alien_Rage

RePack

fifa19

RePack

Assassins Creed: Odyssey

RePack

NEED FOR SPEED™ PAYBACK

4 сезон

9 сезон

Бесстыжие 9 сезон

Все сериалы

все сериалы на PB.wtf

RePack

FAR CRY 5
  

Волшебники / The Magicians / Сезон: 2 / Серии: 1-13 из 13 (Скотт Смит, Майк Кэхилл, Ян Элиасберг) [2017, Детектив, драма, ужасы, фэнтези, WEB-DL 720p] MVO [Jaskier] pb.wtf

Волшебники через торрент pb.wtf

Размер: 19.02 GB | Добавлен: 1 год 10 мес. назад | Торрент скачан:37 раз
Скачать  

26-01-2019 06:21 Волшебники Скачать торрент  

Волшебники / The Magicians Оригинальное название: The Magicians
Русское название: Волшебники
Год выпуска: 2017
Страна: США
Жанр: Детектив, Драма, Ужасы, Фэнтези
Продолжительность: ~ 00:50:00 минут
Перевод: Профессиональный (многоголосый закадровый) | Jaskier
Субтитры: английские

Режиссёр: Скотт Смит, Майк Кэхилл, Ян Элиасберг

rating


В ролях:

Эсме Бьянко, Стелла Маив, Джейсон Ральф, Майкл Кэссиди, Саммер Бишил, Дэвид Колл, Рик Уорси, Темби Лок, Арджун Гупта, Хейл Эйплмен

Описание:

Вы любите «Гарри Поттера»? До сих пор, несмотря на возраст, ждете письмо из Хогвартса? Тогда сериал «Маги» как раз то, что вам нужно. Он является телевизионной адаптацией популярной книги Льва Гроссмана «Волшебники». Жил в Нью-Йорке один парень по имени Квентин Колдуотер, который, как и все нормальные люди, не верил в магию, но любил читать книги про волшебников. Однажды он узнает, что все, прочитанное им в книгах, реально. Квентин становится студентом сверхзасекреченного колледжа Брэйкбилс, который специализируется на преподавании магии. Первым делом он пускается на радостях во все тяжкие студенческой жизни: пьянки, наркотики, секс и немного учебы. Однако, вся магия не приносит ему счастья. Наоборот, Квентин узнает некий секрет волшебного мира, который угрожает существованию мира обычного.

Качество: WEB-DL 720p
Формат: MKV
Видео кодек: AVC
Аудио кодек: AC3

Видео: AVC, 1280x720 (16:9), 23.976 fps, ~4528 kbps, ~0.178 bit/pixel
Аудио 1: Dolby AC3, 48 kHz, 6 ch, 384 kbps Русский
Аудио 2: Dolby AC3, 48 kHz, 6 ch, 384 kbps Оригинал (Английский)
Общее
Уникальный идентификатор : 218781422886345832431171741186958873117 (0xA497C4F4DBCE88A1BD80E18DDC58D21D)
Полное имя : D:\Волшебники (сезон 2) The Magicians (2017) WEB-DL 720p - Jaskier\The.Magicians.S02E01.WEB-DL720p.Rus.Eng.DV.Jaskier.mkv
Формат : Matroska
Версия формата : Version 4 / Version 2
Размер файла : 1,54 Гбайт
Продолжительность : 46 м. 2 с.
Общий поток : 4800 Кбит/сек
Название фильма : The.Magicians.S02E02.WEB-DL720p.Rus.Eng.DV.Jaskier / NNM-Club
Дата кодирования : UTC 2017-07-23 06:07:19
Программа кодирования : mkvmerge v8.2.0 ('World of Adventure') 64bit
Библиотека кодирования : libebml v1.3.1 + libmatroska v1.4.2
Обложка : Yes
Attachments : Cover

Видео
Идентификатор : 1
Формат : AVC
Формат/Информация : Advanced Video Codec
Профиль формата : High@L3.1
Параметр CABAC формата : Нет
Параметр RefFrames формата : 2 кадра
Идентификатор кодека : V_MPEG4/ISO/AVC
Продолжительность : 46 м. 2 с.
Битрейт : 4536 Кбит/сек
Ширина : 1280 пикселей
Высота : 720 пикселей
Соотношение сторон : 16:9
Режим частоты кадров : Постоянный
Частота кадров : 23,976 (24000/1001) кадра/сек
Цветовое пространство : YUV
Субдискретизация насыщенности : 4:2:0
Битовая глубина : 8 бит
Тип развёртки : Прогрессивная
Бит/(Пиксели*Кадры) : 0.178
Размер потока : 1,27 Гбайт (82%)
Язык : English
Default : Да
Forced : Нет
Цветовой диапазон : Limited
Основные цвета : BT.709
Характеристики трансфера : BT.709
Коэффициенты матрицы : BT.709

Аудио #1
Идентификатор : 2
Формат : AC-3
Формат/Информация : Audio Coding 3
Расширение режима : CM (complete main)
Параметр Endianness формата : Big
Идентификатор кодека : A_AC3
Продолжительность : 46 м. 2 с.
Вид битрейта : Постоянный
Битрейт : 384 Кбит/сек
Каналы : 6 каналов
Расположение каналов : Front: L C R, Side: L R, LFE
Частота : 48,0 КГц
Частота кадров : 31,250 кадров/сек (1536 spf)
Метод сжатия : С потерями
Размер потока : 126 Мбайт (8%)
Заголовок : Jaskier
Язык : Russian
Default : Да
Forced : Нет

Аудио #2
Идентификатор : 3
Формат : AC-3
Формат/Информация : Audio Coding 3
Расширение режима : CM (complete main)
Параметр Endianness формата : Big
Идентификатор кодека : A_AC3
Продолжительность : 46 м. 2 с.
Вид битрейта : Постоянный
Битрейт : 384 Кбит/сек
Каналы : 6 каналов
Расположение каналов : Front: L C R, Side: L R, LFE
Частота : 48,0 КГц
Частота кадров : 31,250 кадров/сек (1536 spf)
Метод сжатия : С потерями
Размер потока : 126 Мбайт (8%)
Язык : English
Default : Нет
Forced : Нет

Текст
Идентификатор : 4
Формат : UTF-8
Идентификатор кодека : S_TEXT/UTF8
Идентификатор кодека/Информация : UTF-8 Plain Text
Язык : English
Default : Нет
Forced : Нет
Внимание! Раздача ведётся путём добавления новых серий; при каждом добавлении создётся новый торрент. Чтобы начать докачку новой серии, пользователям необходимо сделать следующее:

Остановить скачивание.
Удалить старый торрент у себя из клиента (старые серии удалять не надо).
Скачать новый торрент и запустить его у себя в клиенте вместо старого, при этом указать клиенту путь в старую папку куда и должно происходить скачивание новых серий.

Ваш клиент при этом должен произвести хеширование (проверку) старой папки (если не производит сам - помогите ему сделать это), и будет докачивать только те серии которых у вас ещё нет. Старые серии при этом не удаляются, а продолжают раздаваться!
Eсли вы уже удалили старые серии, то предотвратить повторную закачку старых серий можно, отжав галочку в соответсвующих местах при запуске нового торрента. По возможности, желательно не удалять старые серии как можно дольше чтобы релизёр не столько продолжал раздавать старые серии, а смог сконцентрироваться на новых.
[url=tracker.php?nm=The%20Magicians%202017]http://rutracker.org/forum/tracker.php?nm=The%20Magicians%202017[/url]
pb.wtf



Скачать Волшебники через торрент http://i89.fastpic.ru/big/2017/0128/40/6b483d89734871b829cf06e2ee70b140.png Скачать фильм Волшебники через торрент бесплантно в хорошем качестве Описание: Вы любите «Гарри Поттера»? До сих пор, несмотря на возраст, ждете письмо из Хогвартса? Тогда сериал «Маги» как раз то, что вам ... 10 10 2
Торрент: Зарегистрирован [2019-01-26 06:21] · скачан: 37 раз
Статус: √ проверено
Размер: 19.02 GB
Как cкачать? Как скачать Волшебники через торрент | qTorrent

% Раздел Тема Автор DL S | L
Зарубежные сериалы [ 6.99 GB ] Волшебники / The Magicians / Сезон: 2 / Серии: 1-13 из 13 [2017 WEB-DLRip] MVO [Jaskier] bober100 Скачать
1 | 0
Зарубежные сериалы [ 9.41 GB ] Волшебники / The Magicians / Сезон: 2 / Серии 1-13 из 13 [2017 WEB-DLRip-AVC] MVO [LostFilm] GEKADOL Скачать
1 | 1
Зарубежные сериалы [ 6.99 GB ] Волшебники / The Magicians / 2 сезон / Серии 1-13 из 13 [2017 WEB-DLRip] MVO [LostFilm] bober100 Скачать
1 | 0
Зарубежные сериалы [ 23.76 GB ] Волшебники / The Magicians / Сезон 2 / Серии 1-13 из 13 [2017 WEB-DLRip 1080p многоголосый LostFilm] Vladislav@Pskov Скачать
1 | 0

28-11-2019 20:33  

Отключить всю рекламу на сайте

    Дорогой пользователь! Огромная просьба, поблагодарите релизера, оцените раздачу и оставьте свои комментарий, если Вы скачали Волшебники через торрент бесплатно! Внесите свою лепту в развитие PiratBit!
    Комментировать посты могут только пользователи прошедшие не сложную регистрацию
    Показать сообщения:    

    Волшебники через торрент
    Скачать бесплатно Волшебники
    Волшебники скачать торрент
    Волшебники смотреть онлайн
    Cкачать фильм Волшебники бесплатно
    Волшебники скачать торрент в хорошем качестве
    Волшебники смотреть онлайн бесплатно в хорошем качестве


    Вы не можете начинать темы
    Вы не можете отвечать на сообщения
    Вы не можете редактировать свои сообщения
    Вы не можете удалять свои сообщения
    Вы не можете голосовать в опросах
    Вы не можете прикреплять файлы к сообщениям
    Вы можете скачивать файлы