Ссылка на приватное зеркало нашего сайта всего за 1$. Внимание количество ограничено!!!

2 сезон

iTunes

1 сезон

1

2 сезон

2 сезон

iTunes

1 сезон

RePack

30

Ultimate

ВАЖНО

ИГРА 18+

pack

RePack

MK11
pack

Забери бонус

RePack

jed

!!Акция!!

Alien_Rage

RePack

fifa19

RePack

Assassins Creed: Odyssey

RePack

NEED FOR SPEED™ PAYBACK

4 сезон

9 сезон

Бесстыжие 9 сезон

Все сериалы

все сериалы на PB.wtf

RePack

FAR CRY 5
  

Королевство / Kingdom / Сезон: 1 / Серии 1-6 из 6 (Ким Сон-хун) [2019, Ужасы, боевик, триллер, WEBRip 720p] [DVO] (Hamsterstudio) pb.wtf

Королевство через торрент pb.wtf

Размер: 7.04 GB | Добавлен: 1 год 9 мес. назад | Торрент скачан:85 раз
Скачать  

26-01-2019 14:37 Королевство Скачать торрент  

Королевство / Kingdom
Информация о сериале

Год выпуска: 2019
Жанр: Ужасы, боевик, триллер
Страна: Корея Южная, США
Продолжительность: 1 x ~ 00:55:00
Перевод: Любительский (двухголосый закадровый) Hamsterstudio

Режиссер: Ким Сон-хун

В ролях: Чу Джи-хун, Рю Сын-нён, Пэ Ду-на, Ким Сан-хо, Хо Джун-хо, Ким Сон-гю, Чон Сок-хо, Ким Хе-джун, Чон Сог-вон, Чин Сон-гю

О фильме: Зомби-эпидемия разворачивается в период династии Чосон. Долго болевший правитель умирает, но возвращается к жизни в виде плотоядной нежити и начинает бродить по дворцу, поэтому наследному принцу приходится расследовать причины произошедшего и спасать страну от быстро распространяющейся заразы.

rating

Файл
Качество: WEBRip 720p
Формат: MKV
Видео: MPEG-4 AVC, ~ 2834 Кбит/с, 1280x640, 23.976 fps
Звук: Русский / AC3 / 2 Ch / 384 kbs
скриншот  скриншот  скриншот  
General
Unique ID : 208790502512851433566536417503428194114 (0x9D13968D057AE9AEBD4304B5EDDBAF42)
Complete name : F:\Kingdom (Season 01) HamsterStudio 720\Kingdom.S01E01.720p.WEBRip.HamsterStudio.mkv
Format : Matroska
Format version : Version 4 / Version 2
File size : 1.32 GiB
Duration : 57 min 25 s
Overall bit rate : 3 283 kb/s
Encoded date : UTC 2019-01-25 14:28:37
Writing application : mkvmerge v7.8.0 ('River Man') 64bit built on Mar 27 2015 16:31:37
Writing library : libebml v1.3.1 + libmatroska v1.4.2

Video
ID : 1
Format : AVC
Format/Info : Advanced Video Codec
Format profile : Main@L3.2
Format settings : CABAC / 3 Ref Frames
Format settings, CABAC : Yes
Format settings, RefFrames : 3 frames
Codec ID : V_MPEG4/ISO/AVC
Duration : 57 min 25 s
Bit rate : 2 834 kb/s
Width : 1 280 pixels
Height : 640 pixels
Display aspect ratio : 2.000
Frame rate mode : Constant
Frame rate : 23.976 (24000/1001) FPS
Standard : NTSC
Color space : YUV
Chroma subsampling : 4:2:0
Bit depth : 8 bits
Scan type : Progressive
Bits/(Pixel*Frame) : 0.144
Stream size : 1.14 GiB (86%)
Language : English
Default : Yes
Forced : Yes
Color range : Limited
Color primaries : BT.709
Transfer characteristics : BT.709
Matrix coefficients : BT.709

Audio
ID : 2
Format : AC-3
Format/Info : Audio Coding 3
Format settings, Endianness : Big
Codec ID : A_AC3
Duration : 57 min 25 s
Bit rate mode : Constant
Bit rate : 384 kb/s
Channel(s) : 2 channels
Channel positions : Front: L R
Sampling rate : 48.0 kHz
Frame rate : 31.250 FPS (1536 SPF)
Bit depth : 16 bits
Compression mode : Lossy
Stream size : 158 MiB (12%)
Language : Russian
Service kind : Complete Main
Default : Yes
Forced : Yes
pb.wtf



Скачать Королевство через торрент https://c.radikal.ru/c04/1901/90/70b6b8f8c6c6.jpg Скачать фильм Королевство через торрент бесплантно в хорошем качестве О фильме: Зомби-эпидемия разворачивается в период династии Чосон. Долго болевший правитель умирает, но возвращается к жизни в виде ... 7 10 3
Торрент: Зарегистрирован [2019-01-26 14:37] · скачан: 85 раз
Статус: √ проверено
Размер: 7.04 GB
Как cкачать? Как скачать Королевство через торрент | qTorrent

% Раздел Тема Автор DL S | L
Зарубежные сериалы [ 69.03 GB ] Королевство / Kingdom / Сезон: 1 / Серии: 1-6 из 6 [2019 UHD WEBRip 2160p ] DVO [Кубик в Кубе] bober100 Скачать
1 | 0
Зарубежные сериалы [ 749 MB ] Королевство / Kingdeom / Kingdom / Сезон: 2 / Серии: 1- из 6 [2020 WEB-DLRip] MVO [LostFilm] bober100 Скачать
1 | 0
Зарубежные сериалы [ 3.8 GB ] Королевство / Kingdeom / Kingdom / Сезон: 2 / Серии: 1-6 из 6 [2020 WEB-DLRip] MVO [HDRezka] bober100 Скачать
2 | 0
Зарубежные сериалы [ 3.09 GB ] Королевство / Kingdeom / Kingdom / Сезон: 2 / Серии: 1- из 6 [2020 WEB-DL 1080p] MVO [LostFilm] bober100 Скачать
1 | 0
Зарубежные сериалы [ 13.14 GB ] Королевство / Kingdom / Сезон: 2 / Серии 1-6 из 6 [2020 WEB-DL 1080p] [MVO] killermax2013 Скачать
1 | 0
Зарубежные сериалы [ 17.03 GB ] Королевство / Kingdom / Сезон: 2 / Серии 1-6 из 6 [2020 WEBRip 1080p] [DVO] killermax2013 Скачать
1 | 0
Зарубежные сериалы [ 12.89 GB ] Королевство / Kingdom / Сезон: 1 / Серии: 1-6 из 6 [2019 WEB-DL 1080p] MVO [Jaskier] bober100 Скачать
1 | 0

28-11-2019 20:33  

Отключить всю рекламу на сайте

26-01-2019 15:41 Королевство Скачать торрент  

Хренасе рейтинг О_о, кто-нибудь смотрел вообще?pb.wtf



26-01-2019 21:12 Королевство Скачать торрент  

Рейтинг ставил ДАУНpb.wtf



    Дорогой пользователь! Огромная просьба, поблагодарите релизера, оцените раздачу и оставьте свои комментарий, если Вы скачали Королевство через торрент бесплатно! Внесите свою лепту в развитие PiratBit!
    Комментировать посты могут только пользователи прошедшие не сложную регистрацию
    Показать сообщения:    

    Королевство через торрент
    Скачать бесплатно Королевство
    Королевство скачать торрент
    Королевство смотреть онлайн
    Cкачать фильм Королевство бесплатно
    Королевство скачать торрент в хорошем качестве
    Королевство смотреть онлайн бесплатно в хорошем качестве


    Вы не можете начинать темы
    Вы не можете отвечать на сообщения
    Вы не можете редактировать свои сообщения
    Вы не можете удалять свои сообщения
    Вы не можете голосовать в опросах
    Вы не можете прикреплять файлы к сообщениям
    Вы можете скачивать файлы