новый адрес пиратбит piratbit
Мега распродажа FORZA HORIZON 4 ULTIMATE+ВСЕ DLC+ОНЛАЙН всего за 499р. 349 руб. (супер цена). Внимание количество ограничено!!!

iTunes

1+1

iTunes

мы

iTunes

1

iTunes

Чернобыль

iTunes

Ральф против интернета

Лицензия

ПШазам

Лицензия

Игра престолов

Лицензия

30
pack

ВАЖНО

!!Акция!!

Alien_RageХит недели

RePack

Resident Evil 21

ИГРА 18+

pack

RePack

Metro:Exodus

!!Акция!!

Alien_Rage

RePack

fifa19

RePack

Assassins Creed: Odyssey

RePack

NEED FOR SPEED™ PAYBACK

3 сезон

9 сезон

Бесстыжие 9 сезон

Все сериалы

все сериалы на PB.wtf

RePack

FAR CRY 5
Ребята, катастрофически не хватает 1900р. для оплаты серверов за Октябрь (всвязи с блокировками трафик упал в 3 раза), 1-2р., выручайте.
  

Путешествие в апрель (Вадим Дербенёв) [1962, СССР, мелодрама, комедия, VHSRip от AVP Studio] pb.wtf

Путешествие в апрель через торрент pb.wtf

Размер: 745 MB | Добавлен: 9 мес. назад | Торрент скачан:4 раза
Скачать  

26-01-2019 15:41 Путешествие в апрель Скачать торрент  

Путешествие в апрель
Страна: СССР
Производство: Молдова-филм

Жанр: мелодрама, комедия
Год выпуска: 1962
Продолжительность: 01:06:29

Перевод: Не требуется
Cубтитры: нет
Оригинальная аудиодорожка: русский

Режиссер: Вадим Дербенёв

В ролях:
Александр Збруев, Раиса Недашковская, Трифан Грузин, Женя Зоценко, Юлиан Флоря, Владимир Васильев, Ион Унгуряну, Валентина Избещук, Александра Назарова, Ирина Мурзаева, Константин Константинов, Ролан Быков, Дмитрий Капка, Думитру Фусу, И. Танасоглу, Александр Карпов (IV), Илие Гуцу, Кэлин Мэняцэ, И. Разумовская, А. Пролетова...
Об актёрах подробней

Описание:
Студента-журналиста Костику с большим нетерпением ждали в Нижних Лазуренах. Отправившись вниз по реке на суденышке, Костика переусердствовал — и вышел в Верхних Лазуренах, где цвели яблоневые сады, пели птицы и где жила красавица Мария, из-за которой он так и не смог добраться до места назначения...

Исходник: VHS
Качество видео: VHSRip
Формат видео: AVI

Видео: 704x528 (4:3), 25,000 кадров/сек, XviD ~ 1366 kbps avg, 0.147 bit/pixel
Аудио: 48 kHz, Dolby Digital AC3 2.0, 192 kbps

Раздача от:
Общее
Полное имя : Puteshestvie.v.aprel.1962.VHSRip_[New-team]_by_AVP_Studio.avi
Формат : AVI
Формат/Информация : Audio Video Interleave
Размер файла : 745 Мбайт
Продолжительность : 1 ч. 6 м.
Общий поток : 1568 Кбит/сек
Программа кодирования : VirtualDubMod 1.5.10.3 | www.virtualdub-fr.org || (build 2550/release)
Библиотека кодирования : VirtualDubMod build 2550/release

Видео
Идентификатор : 0
Формат : MPEG-4 Visual
Профиль формата : Advanced Simple@L5
Настройки формата : BVOP1 / Custom Matrix
Параметр BVOP формата : 1
Параметр QPel формата : Нет
Параметр GMC формата : Без точки перехода
Параметр матрицы формата : Выборочная
Идентификатор кодека : XVID
Идентификатор кодека/Подсказка : XviD
Продолжительность : 1 ч. 6 м.
Битрейт : 1366 Кбит/сек
Ширина : 704 пикселя
Высота : 528 пикселей
Соотношение сторон : 4:3
Частота кадров : 25,000 кадров/сек
Цветовое пространство : YUV
Субдискретизация насыщенности : 4:2:0
Битовая глубина : 8 бит
Тип развёртки : Прогрессивная
Метод сжатия : С потерями
Бит/(Пиксели*Кадры) : 0.147
Размер потока : 650 Мбайт (87%)
Библиотека кодирования : XviD 73

Аудио
Идентификатор : 1
Формат : AC-3
Формат/Информация : Audio Coding 3
Коммерческое название : Dolby Digital
Идентификатор кодека : 2000
Продолжительность : 1 ч. 6 м.
Вид битрейта : Постоянный
Битрейт : 192 Кбит/сек
Каналы : 2 канала
Channel layout : L R
Частота : 48,0 КГц
Частота кадров : 31,250 кадров/сек (1536 SPF)
Битовая глубина : 16 бит
Метод сжатия : С потерями
Размер потока : 91,3 Мбайт (12%)
Выравнивание : Разделение по промежуткам
Продолжительность промежутка : 40 мс. (1,00 видеокадр)
Время предзагрузки промежутка : 500 мс
pb.wtf



Скачать Путешествие в апрель через торрент http://picplus.ru/img/1901/26/c765797d.png Скачать фильм Путешествие в апрель через торрент бесплантно в хорошем качестве Описание:Студента-журналиста Костику с большим нетерпением ждали в Нижних Лазуренах. Отправившись вниз по реке на суденышке, Костика ... 5 10 1
Info! Золотая раздача, скачанное не засчитывается.
Торрент: Зарегистрирован [2019-01-26 15:41] · скачан: 4 раз
Статус: √ проверено
Размер: 745 MB
Как cкачать? Как скачать Путешествие в апрель через торрент | qTorrent

% Раздел Тема Автор DL S | L
Кино СССР [ 745 MB ] Путешествие в апрель [1962 СССР VHSRip-AVC от AVP Studio] AVP Studio Скачать
1 | 0


>> Регистрируемся здесь <<






Отзывы и комментарии о схеме читаем и пишем здесь: ---> Отзывы и комментарии о схеме

Новые благодарочки в телеграм довольных пользователей:
скриншот   скриншот   скриншот   скриншот   скриншот
    Дорогой пользователь! Огромная просьба, поблагодарите релизера, оцените раздачу и оставьте свои комментарий, если Вы скачали Путешествие в апрель через торрент бесплатно! Внесите свою лепту в развитие PiratBit!
    Комментировать посты могут только пользователи прошедшие не сложную регистрацию
    Показать сообщения:    

    Путешествие в апрель через торрент
    Скачать бесплатно Путешествие в апрель
    Путешествие в апрель скачать торрент
    Путешествие в апрель смотреть онлайн
    Cкачать фильм Путешествие в апрель бесплатно
    Путешествие в апрель скачать торрент в хорошем качестве
    Путешествие в апрель смотреть онлайн бесплатно в хорошем качестве


    Вы не можете начинать темы
    Вы не можете отвечать на сообщения
    Вы не можете редактировать свои сообщения
    Вы не можете удалять свои сообщения
    Вы не можете голосовать в опросах
    Вы не можете прикреплять файлы к сообщениям
    Вы можете скачивать файлы