Ссылка на приватное зеркало нашего сайта всего за 1$. Внимание количество ограничено!!!

2 сезон

iTunes

1 сезон

1

2 сезон

2 сезон

iTunes

1 сезон

RePack

30

Ultimate

ВАЖНО

ИГРА 18+

pack

RePack

MK11
pack

Забери бонус

RePack

jed

!!Акция!!

Alien_Rage

RePack

fifa19

RePack

Assassins Creed: Odyssey

RePack

NEED FOR SPEED™ PAYBACK

4 сезон

9 сезон

Бесстыжие 9 сезон

Все сериалы

все сериалы на PB.wtf

RePack

FAR CRY 5
  

Разделенные вместе / Splitting Up Together / Сезон: 2 / Серии: 1-18 из 18 (Дин Холлэнд, Хелен Хант, Джей Карас) [2018, Комедия, WEB-DL 1080p] MVO [Jaskier] pb.wtf

Разделенные вместе через торрент pb.wtf

Размер: 35.02 GB | Добавлен: 10 мес. назад | Торрент скачан:0 раз
Скачать  

26-01-2019 20:12 Разделенные вместе Скачать торрент  

Разделенные вместе | Splitting Up Together

Год выпуска: 2018
Страна: США
Жанр: Комедия
Продолжительность: ~ 00:25:00
Перевод: Профессиональный (многоголосый закадровый) | Jaskier

Режиссёр: Дин Холлэнд, Хелен Хант, Джей Карас

В ролях: Келси Эсбил, Дженна Фишер, Оливер Хадсон, Оливия Кевиль, Сандер Томас, Моника Барбаро, Ван Кросби, Трент Гарретт, Изабелла Альварес, Макс Штубингтон

Описание: В центре внимания сюжета сериала оказываются Лена и Мартин. Главные герои вместе уже давно. Кажется, что каждый их день чем-то похож на предыдущий. В отношениях явно не хватает огонька, чувств, эмоций и страсти. Однако главные герои не переживают по этому поводу. Они уверены, что будущую стабильность в семье обеспечивают две любимые дочурки, а также хорошие доходы на работе. Любовь уже не настолько пылкая и яркая между главными персонажами, а мелочи, связанные с характерами друг друга, начинают постепенно раздражать, нежели привлекать. Правда, Лена и Мартин сконцентрированы на воспитании детей. Они, действительно, очень любят своих девочек и мечтают, чтобы те смогли вырасти умными и счастливыми. Супруги же продолжают чувствовать, что их отношения ухудшились. Неожиданно мужчина и женщина разводятся, но продолжают жить вместе в уютном семейном гнездышке. Одну неделю за дочерьми следит Мартин, а другую он отправляется в подвал, где увлеченно занимается своими делами, пока за воспитание отвечает Елена. Кажется, что расставание и развод помогли персонажам оправиться от оков, стеснявших их во время брака. Их отношения неожиданно выходят на новый уровень!

rating

Качество: WEB-DL 1080p
Формат: MKV

Видео: 1920x1080 (16:9) | X264 | ~13100 kbps | 23.976 fps
Аудио 1: AC3, 48,0 КГц, 6 ch, 384 kbps - [RUS]
Аудио 2: AC3, 48,0 КГц, 6 ch, 384 kbps - [ENG]


Реклама: Присутствует звуковая (два раза в начале и конце по 10 сек.)
Переведено и озвучено: студией Jaskier
Общее
Уникальный идентификатор                 : 170824267466288796545021982914106147879 (0x80838EA4465700E837842763CFD0C427)
Полное имя                               : G:\Jaskier\Splitting.Up.Together Season 2 (WEB-DL l 1080p l Jaskier)\Splitting.Up.Together.S02E01.WEB-DL.1080p.Jaskier.mkv
Формат                                   : Matroska
Версия формата                           : Version 4 / Version 2
Размер файла                             : 2,08 Гбайт
Продолжительность                        : 21 м. 27 с.
Режим общего битрейта                    : Переменный
Общий поток                              : 13,9 Мбит/сек
Дата кодирования                         : UTC 2018-10-18 19:20:59
Программа кодирования                    : mkvmerge v27.0.0 ('Metropolis') 64-bit
Библиотека кодирования                   : libebml v1.3.6 + libmatroska v1.4.9

Видео
Идентификатор                            : 1
Формат                                   : AVC
Формат/Информация                        : Advanced Video Codec
Профиль формата                          : High@L4
Настройки формата                        : CABAC / 4 Ref Frames
Параметр CABAC формата                   : Да
Параметр RefFrames формата               : 4 кадра
Идентификатор кодека                     : V_MPEG4/ISO/AVC
Продолжительность                        : 21 м. 27 с.
Вид битрейта                             : Переменный
Битрейт                                  : 13,1 Мбит/сек
Максимальный битрейт                     : 15,0 Мбит/сек
Ширина                                   : 1920 пикселей
Высота                                   : 1080 пикселей
Соотношение сторон                       : 16:9
Режим частоты кадров                     : Постоянный
Частота кадров                           : 23,976 (24000/1001) кадра/сек
Цветовое пространство                    : YUV
Субдискретизация насыщенности            : 4:2:0
Битовая глубина                          : 8 бит
Тип развёртки                            : Прогрессивная
Бит/(Пиксели*Кадры)                      : 0.264
Размер потока                            : 1,97 Гбайт (94%)
Default                                  : Да
Forced                                   : Нет
Цветовой диапазон                        : Limited
Основные цвета                           : BT.709
Характеристики трансфера                 : BT.709
Коэффициенты матрицы                     : BT.709

Аудио #1
Идентификатор                            : 2
Формат                                   : AC-3
Формат/Информация                        : Audio Coding 3
Идентификатор кодека                     : A_AC3
Продолжительность                        : 21 м. 27 с.
Вид битрейта                             : Постоянный
Битрейт                                  : 384 Кбит/сек
Каналы                                   : 6 каналов
Расположение каналов                     : Front: L C R, Side: L R, LFE
Частота                                  : 48,0 КГц
Частота кадров                           : 31,250 кадров/сек (1536 SPF)
Битовая глубина                          : 16 бит
Метод сжатия                             : С потерями
Размер потока                            : 58,9 Мбайт (3%)
Язык                                     : Russian
ServiceKind/String                       : Complete Main
Default                                  : Да
Forced                                   : Нет

Аудио #2
Идентификатор                            : 3
Формат                                   : AC-3
Формат/Информация                        : Audio Coding 3
Идентификатор кодека                     : A_AC3
Продолжительность                        : 21 м. 27 с.
Вид битрейта                             : Постоянный
Битрейт                                  : 384 Кбит/сек
Каналы                                   : 6 каналов
Расположение каналов                     : Front: L C R, Side: L R, LFE
Частота                                  : 48,0 КГц
Частота кадров                           : 31,250 кадров/сек (1536 SPF)
Битовая глубина                          : 16 бит
Метод сжатия                             : С потерями
Размер потока                            : 58,9 Мбайт (3%)
Язык                                     : English
ServiceKind/String                       : Complete Main
Default                                  : Нет
Forced                                   : Нет
скриншот  скриншот  скриншот  
Когда раздача ведётся путём добавления новых серий, при каждом добавлении создётся новый торрент. Чтобы начать докачку новой серии, пользователям необходимо сделать следующее:
(1) остановить скачивание,
(2) удалить старый торрент у себя из клиента (старые серии удалять не надо),
(3) скачать новый торрент и запустить его у себя в клиенте вместо старого, при этом указать клиенту путь в старую папку, куда и должно происходить скачивание новых серий.
Ваш клиент при этом должен произвести хеширование (проверку) старой папки (если не производит сам - помогите ему сделать это), и будет докачивать только те серии, которых у вас ещё нет. Старые серии при этом не удаляются, а продолжают раздаваться!
Eсли вы уже удалили старые серии, то предотвратить повторную закачку старых серий можно, отжав галочку в соответсвующих местах при запуске нового торрента. По возможности, желательно не удалять старые серии как можно дольше, чтобы релизёр не столько продолжал раздавать старые серии, а смог сконцентрироваться на новых.
pb.wtf



Скачать Разделенные вместе через торрент https://i80.fastpic.ru/big/2018/1018/68/6e80322f883d55dbe4d6cab7cfa8d368.png Скачать фильм Разделенные вместе через торрент бесплантно в хорошем качестве Описание: В центре внимания сюжета сериала оказываются Лена и Мартин. Главные герои вместе уже давно. Кажется, что каждый их день чем-то ... 10 10 2
Торрент: Зарегистрирован [2020-01-22 12:08] · скачан: 0 раз
Статус: √ проверено
Размер: 35.02 GB
Как cкачать? Как скачать Разделенные вместе через торрент | qTorrent

% Раздел Тема Автор DL S | L
Зарубежные сериалы [ 4.99 GB ] Разделенные вместе / Splitting Up Together / Сезон: 2 / Серии: 1-18 из 18 [2018 WEB-DLRip] MVO [Jaskier] bober100 Скачать
1 | 0

28-11-2019 20:33  

Отключить всю рекламу на сайте

    Дорогой пользователь! Огромная просьба, поблагодарите релизера, оцените раздачу и оставьте свои комментарий, если Вы скачали Разделенные вместе через торрент бесплатно! Внесите свою лепту в развитие PiratBit!
    Комментировать посты могут только пользователи прошедшие не сложную регистрацию
    Показать сообщения:    

    Разделенные вместе через торрент
    Скачать бесплатно Разделенные вместе
    Разделенные вместе скачать торрент
    Разделенные вместе смотреть онлайн
    Cкачать фильм Разделенные вместе бесплатно
    Разделенные вместе скачать торрент в хорошем качестве
    Разделенные вместе смотреть онлайн бесплатно в хорошем качестве


    Вы не можете начинать темы
    Вы не можете отвечать на сообщения
    Вы не можете редактировать свои сообщения
    Вы не можете удалять свои сообщения
    Вы не можете голосовать в опросах
    Вы не можете прикреплять файлы к сообщениям
    Вы можете скачивать файлы