Всегда рабочее зеркало без VPN и Proxy просто перед .vidak.icu напиши любое слово или цифру, Пример http://rfr1.vidak.icu

Лицензия

MVO

1 сезон

1

1 сезон

iTunes

1 сезон

13

1 сезон

Deluxe

pack

Рекомендуем

Repack

30

ВАЖНО

RePack

MK11

RePack

jed

RePack

fifa19

RePack

RDR2

RePack

NEED FOR SPEED™ PAYBACK

Кинопоиск HD

6 сезон

 Острые козырьки 6 сезон

Все сериалы

все сериалы на PB.wtf

RePack

FAR CRY 5
  
Magnet ссылка

Хэллфест / Hell Fest (Грегори Плоткин ) [2018, ужасы, UHD BDRemux 2160p] Дубляж [ iTunes] [Dolby Vision TV] pb.wtf

Хэллфест через торрент pb.wtf

Размер: 44.23 GB | Добавлен: 3 года 6 мес. назад | Торрент скачан:15 раз
Смотреть онлайн Хэллфест | Скачать    Ребята, помогите собрать деньги на оплату серверов!!!

27-01-2019 01:40 Хэллфест Скачать торрент  

Хэллфест / Hell Fest«Здесь пугают до смерти»

Год выпуска: 2018
Страна: США
Жанр: ужасы
Продолжительность: 01:28:48
Перевод: Дублированный | iTunes
Режиссер: Грегори Плоткин
В ролях:

Эми Форсайт (Natalie), Рейн Эдвардс (Brooke), Бекс Тейлор-Клаус (Taylor), Кристиан Балис (Quinn), Мэтт Меркьюрио (Asher), Роби Аттал (Gavin), Тони Тодд (The Barker), Кортни Дитц (Britney), Стивен Конрой (The Other), Микаэль Турек (Security Guard), Джордж Ховард Адамс (Gate Guard), Рио Ан (EMT)
Описание:
Три подруги встречаются накануне Хэллоуина и вместе со своими парнями решают отметить праздник походом на Хэллфест, популярный фестиваль, главная цель организаторов которого - напугать посетителей до полусмерти. Но для серийного убийцы в маске Хэллфест - это не просто карнавал ужасов, а площадка для смертельных игр. В этот раз он решает преследовать Натали, и теперь жизни девушки и её друзей находятся в большой опасности.
Рейтинг:

MPAA: R - Лицам до 17 лет обязательно присутствие взрослого
Качество: UHD BDRemux 2160p | Dolby Vision TV
Формат: MP4
Видео: HEVC, 63.3 Мбит/с, 3840x2160
Аудио: русский / AC3 / 5.1 / 48 kHz / 384 kbps
Данный вид релизов (контейнер MP4) предназначен для встроенного в ТВ (соответственно, с поддержкой DV) плеер.
Т.Е. Можно использовать как USB flash/HDD, так и DLNA / Plex - подобные сервисы/программы. дополнительный-внешний плеер не обязателен.

Внимание!
На моделях LG 2016 возможны сюрпризы "через раз", 2017-2018 должно идти без сюрпризов )
Общее
Полное имя : Hell.Fest.2018.UHD.BDRemux.2160p.DV.IVA.RUS.ExKinoRay.mp4
Формат : MPEG-4
Профиль формата : Base Media / Version 2
Идентификатор кодека : mp42 (mp42/iso6/isom/msdh/dby1)
Размер файла : 44,2 Гбайт
Продолжительность : 1 ч. 28 м.
Общий поток : 71,3 Мбит/сек
Дата кодирования : UTC 2019-01-26 14:06:37
Дата пометки : UTC 2019-01-26 14:06:37

Видео #1
Идентификатор : 1
Формат : HEVC
Формат/Информация : High Efficiency Video Coding
Коммерческое название : HDR10
Профиль формата : Main [email protected]@High
Идентификатор кодека : hev1
Идентификатор кодека/Информация : High Efficiency Video Coding
Продолжительность : 1 ч. 28 м.
Битрейт : 63,3 Мбит/сек
Ширина : 3840 пикселей
Высота : 2160 пикселей
Соотношение сторон : 16:9
Режим частоты кадров : Постоянный
Частота кадров : 23,976 (24000/1001) кадра/сек
Цветовое пространство : YUV
Субдискретизация насыщенности : 4:2:0 (Type 2)
Битовая глубина : 10 бит
Бит/(Пиксели*Кадры) : 0.318
Размер потока : 39,3 Гбайт (89%)
Default : Нет
Дата кодирования : UTC 2019-01-26 14:06:37
Дата пометки : UTC 2019-01-26 14:06:37
Цветовой диапазон : Limited
Основные цвета : BT.2020
Характеристики трансфера : PQ
Коэффициенты матрицы : BT.2020 non-constant
MasteringDisplay_ColorPrimaries : Display P3
MasteringDisplay_Luminance : min: 0.0001 cd/m2, max: 1000 cd/m2
MaxCLL : 1000 cd/m2
MaxFALL : 830 cd/m2
Codec configuration box : hvcC

Видео #2
Идентификатор : 2
Формат : HEVC
Формат/Информация : High Efficiency Video Coding
Коммерческое название : HDR10
Профиль формата : Main [email protected]@High
Dolby Vision : 1.0, dvhe.07.06, EL+RPU
Идентификатор кодека : dvhe
Идентификатор кодека/Информация : High Efficiency Video Coding with Dolby Vision
Продолжительность : 1 ч. 28 м.
Битрейт : 7629 Кбит/сек
Ширина : 1920 пикселей
Высота : 1080 пикселей
Соотношение сторон : 16:9
Режим частоты кадров : Постоянный
Частота кадров : 23,976 (24000/1001) кадра/сек
Цветовое пространство : YUV
Субдискретизация насыщенности : 4:2:0 (Type 2)
Битовая глубина : 10 бит
Бит/(Пиксели*Кадры) : 0.153
Размер потока : 4,73 Гбайт (11%)
Default : Нет
Дата кодирования : UTC 2019-01-26 14:06:37
Дата пометки : UTC 2019-01-26 14:06:37
Цветовой диапазон : Limited
Основные цвета : BT.2020
Характеристики трансфера : PQ
Коэффициенты матрицы : BT.2020 non-constant
MasteringDisplay_ColorPrimaries : Display P3
MasteringDisplay_Luminance : min: 0.0001 cd/m2, max: 1000 cd/m2
Codec configuration box : hvcC+dvcC

Аудио
Идентификатор : 3
Формат : AC-3
Формат/Информация : Audio Coding 3
Коммерческое название : Dolby Digital
Идентификатор кодека : ac-3
Продолжительность : 1 ч. 28 м.
Вид битрейта : Постоянный
Битрейт : 384 Кбит/сек
Каналы : 6 каналов
Channel layout : L R C LFE Ls Rs
Частота : 48,0 КГц
Частота кадров : 31,250 кадров/сек (1536 SPF)
Битовая глубина : 16 бит
Метод сжатия : С потерями
Размер потока : 244 Мбайт (1%)
Язык : Russian
ServiceKind/String : Complete Main
Default : Нет
Дата кодирования : UTC 2019-01-26 14:06:37
Дата пометки : UTC 2019-01-26 14:06:37
pb.wtf



Скачать Хэллфест через торрент https://a.radikal.ru/a00/1901/a6/981c6e5d7492.png Скачать, смотреть онлайн Хэллфест бесплантно в хорошем качестве Описание: Три подруги встречаются накануне Хэллоуина и вместе со своими парнями решают отметить праздник походом на Хэллфест, популярный ... 10 10 2
Торрент: Зарегистрирован [2019-01-27 01:40] · скачан: 15 раз
Статус: √ проверено
Размер: 44.23 GB
Как cкачать? Как скачать Хэллфест через торрент | UTorrent

% Раздел Тема Автор DL S | L
Фильмы 2018 [DVDrip, WEB-DLRip, HDrip] (DUB, MVO) [ 1.42 GB ] Хэллфест / Hell Fest [2018 BDRip] - Twi7ter Скачать
1 | 0
Фильмы (Blu-ray, BD-Remux, HDDVD) [ 24.94 GB ] Хэллфест / Hell Fest [2018 BD Remux 1080p] bober100 Скачать
1 | 0
Ultra HD (UHD: 2K, 4K, 8K) — видео сверхвысокой чёткости [ 11.8 GB ] Хэллфест / Hell Fest [2018 UHD BDRip 2160p] bober100 Скачать
1 | 0
Ultra HD (UHD: 2K, 4K, 8K) — видео сверхвысокой чёткости [ 43.67 GB ] Хэллфест / Hell Fest [2018 UHD BDRemux 2160p] bober100 Скачать
1 | 0
Ultra HD (UHD: 2K, 4K, 8K) — видео сверхвысокой чёткости [ 55.95 GB ] Хэллфест / Hell Fest [2018 UHD Blu-ray 2160p] [Dolby Vision] bober100 Скачать
1 | 0
Фильмы 2018 [DVDrip, WEB-DLRip, HDrip] (DUB, MVO) [ 1.91 GB ] Хэллфест / Hell Fest [2018 BDRip-AVC] bober100 Скачать
1 | 0
Фильмы 2018 [DVDrip, WEB-DLRip, HDrip] (DUB, MVO) [ 745 MB ] Хэллфест / Hell Fest [2018 BDRip] bober100 Скачать
1 | 0

28-11-2019 20:33  

Отключить вcю реклaмy на сайте

    Дорогой пользователь! Огромная просьба, поблагодарите релизера, оцените раздачу и оставьте свои комментарий, если Вы скачали Хэллфест через торрент бесплатно!
    Комментировать посты могут только пользователи прошедшие не сложную регистрацию
    Показать сообщения:    

    Хэллфест через торрент
    Скачать бесплатно Хэллфест
    Хэллфест скачать торрент
    Хэллфест смотреть онлайн
    Cкачать фильм Хэллфест бесплатно
    Хэллфест скачать торрент в хорошем качестве
    Хэллфест смотреть онлайн бесплатно в хорошем качестве


    Вы не можете начинать темы
    Вы не можете отвечать на сообщения
    Вы не можете редактировать свои сообщения
    Вы не можете удалять свои сообщения
    Вы не можете голосовать в опросах
    Вы не можете прикреплять файлы к сообщениям
    Вы можете скачивать файлы