2 сезон

iTunes

1 сезон

1

iTunes

iTunes

iTunes

1 сезон

RePack

30

ИГРА 18+

pack

ВАЖНО

!!Акция!!

Alien_RageХит недели

RePack

MK11
pack

Забери бонус

RePack

jed

!!Акция!!

Alien_Rage

RePack

fifa19

RePack

Assassins Creed: Odyssey

RePack

NEED FOR SPEED™ PAYBACK

4 сезон

9 сезон

Бесстыжие 9 сезон

Все сериалы

все сериалы на PB.wtf

RePack

FAR CRY 5
  

Тайная любовь / Испытание / Сезон: 1 / Серии: 1-16 из 16 (Анатолий Григорьев) [2019, Мелодрама, WEB-DL 1080p] pb.wtf

Тайная любовь через торрент pb.wtf

Размер: 25.61 GB | Добавлен: 1 год 9 мес. назад | Торрент скачан:22 раза
Скачать  

27-01-2019 01:42 Тайная любовь Скачать торрент  

Тайная любовь / Испытание Год выпуска: 2019
Страна: Россия, Украина
Жанр: Мелодрама
Продолжительность: ~ 00:44:00
Перевод: Не требуется
Субтитры: отсутствуют

Режиссер: Анатолий Григорьев

В ролях:

Дана Абызова, Антон Денисенко, Анатолий Ященко, Николай Боклан, Олег Примогенов, Ирина Мельник

Описание:

Cчастливая жизнь Любы Зацепиной рушится в тот самый день, когда ее любимый, будущий прокурор Юрий Браницкий сделал ей долгожданное предложение выйти за него замуж. Вечером, во время страшноголивня он насмерть сбивает беременную женщину. Если Юрий признается в совершении наезда, его прокурорская карьера будет уничтожена, поэтому Люба берет на себя чужую вину и садится в тюрьму. Она даже не подозревает, с кем с этого рокового дня вступила в поединок не на жизнь…

Качество: WEB-DL 1080p
Формат: MKV

Видео: MPEG-4 AVC, ~ 4800 Кбит/с, 1920x1080, 25 кадр/с
Аудио: AC3, 2 ch, 192 Кбит/с
скриншот  скриншот  скриншот  скриншот  скриншот  

Общее
Уникальный идентификатор : 309677667464040888357368872777117741365 (0xE8F9BFD151922682098D235730DE3135)
Полное имя : E:\Taйнaя любoвь.(2019).WEB-DL (1080p).by.Nicodem.Files-x\01.Taйнaя любoвь.(2019).WEB-DL (1080p).by.Nicodem.Files-x.mkv
Формат : Matroska
Версия формата : Version 4 / Version 2
Размер файла : 1,58 Гбайт
Продолжительность : 44 м. 22 с.
Общий поток : 5109 Кбит/сек
Программа кодирования : Lavf56.36.100
Библиотека кодирования : Lavf56.36.100

Видео
Идентификатор : 1
Формат : AVC
Формат/Информация : Advanced Video Codec
Профиль формата : High@L4
Настройки формата : CABAC / 4 Ref Frames
Параметр CABAC формата : Да
Параметр RefFrames формата : 4 кадра
Идентификатор кодека : V_MPEG4/ISO/AVC
Продолжительность : 44 м. 22 с.
Битрейт : 4815 Кбит/сек
Ширина : 1920 пикселей
Высота : 1080 пикселей
Соотношение сторон : 16:9
Режим частоты кадров : Постоянный
Частота кадров : 25,000 кадров/сек
Цветовое пространство : YUV
Субдискретизация насыщенности : 4:2:0
Битовая глубина : 8 бит
Тип развёртки : Прогрессивная
Бит/(Пиксели*Кадры) : 0.093
Размер потока : 1,49 Гбайт (94%)
Default : Да
Forced : Нет

Аудио
Идентификатор : 2
Формат : AC-3
Формат/Информация : Audio Coding 3
Идентификатор кодека : A_AC3
Продолжительность : 44 м. 22 с.
Вид битрейта : Постоянный
Битрейт : 192 Кбит/сек
Каналы : 2 канала
Расположение каналов : Front: L R
Частота : 44,1 КГц
Частота кадров : 28,711 кадров/сек (1536 SPF)
Битовая глубина : 16 бит
Метод сжатия : С потерями
Задержка видео : -160 мс.
Размер потока : 60,9 Мбайт (4%)
Язык : unknown
ServiceKind/String : Complete Main
Default : Да
Forced : Нет

pb.wtf



Скачать Тайная любовь через торрент https://i84.fastpic.ru/big/2019/0114/75/577952fc393458dedd425c7cf8384a75.jpg Скачать фильм Тайная любовь через торрент бесплантно в хорошем качестве Описание: Cчастливая жизнь Любы Зацепиной рушится в тот самый день, когда ее любимый, будущий прокурор Юрий Браницкий сделал ей ... 10 10 2
Info! Золотая раздача, скачанное не засчитывается.
Торрент: Зарегистрирован [2019-01-27 01:42] · скачан: 22 раз
Статус: √ проверено
Размер: 25.61 GB
Как cкачать? Как скачать Тайная любовь через торрент | qTorrent

% Раздел Тема Автор DL S | L
Наши сериалы [ 9 GB ] Тайная любовь / Испытание / Сезон: 1 / Серии: 1-16 из 16 [2019 Мело WEB-DLRip-AVC] bober100 Скачать
1 | 0
Наши сериалы [ 10.86 GB ] Тайная любовь / Испытание / Сезон: 1 / Серии: 1-16 из 16 [2019 Мело WEB-DL 720p] bober100 Скачать
1 | 0
Наши сериалы [ 8.7 GB ] Тайная любовь / Испытание / Сезон: 1 / Серии: 1-16 из 16 [2019 Мело WEB-DLRip] bober100 Скачать
1 | 0

28-11-2019 20:33  

Отключить всю рекламу на сайте

    Дорогой пользователь! Огромная просьба, поблагодарите релизера, оцените раздачу и оставьте свои комментарий, если Вы скачали Тайная любовь через торрент бесплатно! Внесите свою лепту в развитие PiratBit!
    Комментировать посты могут только пользователи прошедшие не сложную регистрацию
    Показать сообщения:    

    Тайная любовь через торрент
    Скачать бесплатно Тайная любовь
    Тайная любовь скачать торрент
    Тайная любовь смотреть онлайн
    Cкачать фильм Тайная любовь бесплатно
    Тайная любовь скачать торрент в хорошем качестве
    Тайная любовь смотреть онлайн бесплатно в хорошем качестве


    Вы не можете начинать темы
    Вы не можете отвечать на сообщения
    Вы не можете редактировать свои сообщения
    Вы не можете удалять свои сообщения
    Вы не можете голосовать в опросах
    Вы не можете прикреплять файлы к сообщениям
    Вы можете скачивать файлы