MEGA SALE -50% FORZA HORIZON 4 ULTIMATE+ВСЕ DLC+ОНЛАЙН всего за 599р. 299 руб. (супер цена). Внимание количество ограничено!!!

iTunes

1+1

iTunes

мы

iTunes

1

iTunes

Чернобыль

1 сезон

Ральф против интернета

Лицензия

ПШазам

Лицензия

Игра престолов

Лицензия

30
pack

ВАЖНО

!!Акция!!

Alien_RageХит недели

RePack

Resident Evil 21

ИГРА 18+

pack

RePack

Metro:Exodus

!!Акция!!

Alien_Rage

RePack

fifa19

RePack

Assassins Creed: Odyssey

RePack

NEED FOR SPEED™ PAYBACK

3 сезон

9 сезон

Бесстыжие 9 сезон

Все сериалы

все сериалы на PB.wtf

RePack

FAR CRY 5
Ребята, катастрофически не хватает 7730р. для оплаты серверов за ИЮЛЬ (всвязи с блокировками трафик упал в 3 раза), 1-2р., выручайте.
  

Кладбище домашних животных / Pet Sematary (Мэри Ламберт) [1989, Ужасы, триллер, фэнтези, драма, BDRip-HEVC 1080p, (10 bit)] MVO [Премьер Видео Фильм] pb.wtf

Кладбище домашних животных через торрент pb.wtf

Размер: 7.77 GB | Добавлен: 6 мес. назад | Торрент скачан:151 раз
Скачать  

27-01-2019 03:53 Кладбище домашних животных Скачать торрент  

Кладбище домашних животных / Pet Sematary Год выпуска: 1989
Страна: США
Жанр: Ужасы, триллер, фэнтези, драма
Продолжительность: 01:42:45
Перевод: Профессиональный (многоголосый) | Премьер Видео Фильм
Субтитры: Русские

Режиссер: Мэри Ламберт

rating

В ролях:

Дэйл Мидкифф (Louis Creed), Фред Гуинн (Jud Crandall), Дениз Кросби (Rachel Creed), Брэд Гринквист (Victor Pascow), Майкл Ломбард (Irwin Goldman), Мико Хьюз (Gage Creed), Блэйз Бердаль (Ellie Creed), Сьюзан Бломмарт (Missy Dandridge), Мара Кларк (Marcy Charlton), Кави Раз (Steve Masterton), Мэри Луиза Уилсон (Dory Goldman), Эндрю Хубатсек (Zelda)
Описание:

Доктор Луис Крид переезжает в маленький городок, где его семью ждет большой дом, а самого Луиса — скромная должность лечащего врача местного колледжа. Новая, просторная обитель четы Кридов расположена на краю густого, величественного леса. А в самом лесу — маленькое и мрачное кладбище, где местные жители хоронят своих домашних животных. Несчастье приходит и в дом Кридов: кот Черч, домашний любимец, по нелепой случайности попадает под колеса грузовика. Гибель Черча повергает семью доктора в шок, и Луис решается на отчаянный шаг. Он хоронит кота на древнем, заброшенном индейском кладбище, обладающем, по легенде, таинственной воскрешающей силой. И однажды ночью погибший кот возвращается к хозяевам... Экранизация по произведению: Стивен Кинг.

Качество: BDRip-HEVC 1080p
Формат: MKV

Видео: HEVC/H.265, 1920x1080, ~10.4 Mb/s, 10 bit
Аудио: AC3, 6 ch, 384 Kbps Профессиональный многоголосый (Премьер Видео Фильм)
скриншот  скриншот  скриншот  скриншот  

General
Unique ID : 212626436817792563023380637312746774959 (0x9FF65CB6C08549EAE1CAAC1EAA63E1AF)
Complete name : D:ВИДЕОфильмыPet.Sematary.1989.1080p.Bluray.AVC.Remux.HDCLUBBDMVSTREAMPet Sematary (1989) BDRip 1080p [HEVC] 10bit.mkv
Format : Matroska
Format version : Version 4
File size : 7.77 GiB
Duration : 1 h 42 min
Overall bit rate : 10.8 Mb/s
Movie name : Кладбище домашних животных
Encoded date : UTC 2019-01-26 19:43:09
Writing application : mkvmerge v25.0.0 ('Prog Noir') 64-bit
Writing library : libebml v1.3.6 + libmatroska v1.4.9 / Lavf57.71.100
Attachments : poster.jpg
ACTORS : Дэйл Мидкифф, Фред Гуинн,
COUNTRY : США
DATE : 1989
DIRECTOR : Мэри Ламберт
ENCODING_INFO : MPEGTS > MKV / H264 > X265 CRF 19.5 Medium
GENRE : ужасы, триллер
HD_VIDEO : 1
Language : und
MEDIA_TYPE : 9
ORIGINAL_TITLE : Pet Sematary

Video
ID : 1
Format : HEVC
Format/Info : High Efficiency Video Coding
Format profile : Main 10@L4.1@High
Codec ID : V_MPEGH/ISO/HEVC
Duration : 1 h 42 min
Bit rate : 10.4 Mb/s
Width : 1 920 pixels
Height : 1 080 pixels
Display aspect ratio : 16:9
Frame rate mode : Constant
Frame rate : 23.976 (24000/1001) FPS
Color space : YUV
Chroma subsampling : 4:2:0
Bit depth : 10 bits
Bits/(Pixel*Frame) : 0.210
Stream size : 7.50 GiB (96%)
Writing library : x265 2.9+9-f74003e88622:[Windows][GCC 8.2.0][64 bit] 10bit
Encoding settings : cpuid=1111039 / frame-threads=13 / numa-pools=12 / wpp / no-pmode / no-pme / no-psnr / no-ssim / log-level=3 / input-csp=1 / input-res=1920x1080 / interlace=0 / total-frames=0 / level-idc=41 / high-tier=1 / uhd-bd=0 / ref=5 / allow-non-conformance / no-repeat-headers / annexb / no-aud / no-hrd / info / hash=0 / no-temporal-layers / no-open-gop / min-keyint=23 / keyint=240 / gop-lookahead=0 / bframes=8 / b-adapt=2 / b-pyramid / bframe-bias=0 / rc-lookahead=60 / lookahead-slices=6 / scenecut=40 / radl=0 / no-intra-refresh / ctu=64 / min-cu-size=8 / rect / amp / max-tu-size=32 / tu-inter-depth=1 / tu-intra-depth=1 / limit-tu=0 / rdoq-level=0 / dynamic-rd=0.00 / no-ssim-rd / signhide / no-tskip / nr-intra=0 / nr-inter=0 / no-constrained-intra / no-strong-intra-smoothing / max-merge=2 / limit-refs=3 / no-limit-modes / me=3 / subme=7 / merange=57 / temporal-mvp / weightp / weightb / no-analyze-src-pics / deblock=-3:-3 / no-sao / no-sao-non-deblock / rd=3 / no-early-skip / rskip / no-fast-intra / no-tskip-fast / no-cu-lossless / no-b-intra / no-splitrd-skip / rdpenalty=0 / psy-rd=2.00 / psy-rdoq=0.00 / no-rd-refine / no-lossless / cbqpoffs=0 / crqpoffs=0 / rc=crf / crf=19.5 / qcomp=0.65 / qpstep=4 / stats-write=0 / stats-read=0 / vbv-maxrate=50000 / vbv-bufsize=50000 / vbv-init=0.9 / crf-max=30.0 / crf-min=0.0 / ipratio=1.40 / pbratio=1.30 / aq-mode=2 / aq-strength=1.00 / cutree / zone-count=0 / no-strict-cbr / qg-size=32 / no-rc-grain / qpmax=69 / qpmin=0 / no-const-vbv / sar=1 / overscan=0 / videoformat=5 / range=0 / colorprim=1 / transfer=1 / colormatrix=1 / chromaloc=0 / display-window=0 / max-cll=0,0 / min-luma=0 / max-luma=1023 / log2-max-poc-lsb=8 / vui-timing-info / vui-hrd-info / slices=1 / no-opt-qp-pps / no-opt-ref-list-length-pps / no-multi-pass-opt-rps / scenecut-bias=0.05 / no-opt-cu-delta-qp / no-aq-motion / no-hdr / no-hdr-opt / no-dhdr10-opt / no-idr-recovery-sei / analysis-reuse-level=5 / scale-factor=0 / refine-intra=0 / refine-inter=0 / refine-mv=0 / no-limit-sao / ctu-info=0 / no-lowpass-dct / refine-mv-type=0 / copy-pic=1 / max-ausize-factor=1.0 / no-dynamic-refine / no-single-sei
Default : Yes
Forced : No
Color range : Limited
Color primaries : BT.709
Transfer characteristics : BT.709
Matrix coefficients : BT.709

Audio
ID : 2
Format : AC-3
Format/Info : Audio Coding 3
Commercial name : Dolby Digital
Codec ID : A_AC3
Duration : 1 h 42 min
Bit rate mode : Constant
Bit rate : 384 kb/s
Channel(s) : 6 channels
Channel layout : L R C LFE Ls Rs
Sampling rate : 48.0 kHz
Frame rate : 31.250 FPS (1536 SPF)
Bit depth : 16 bits
Compression mode : Lossy
Stream size : 282 MiB (4%)
Language : Russian
Service kind : Complete Main
Default : Yes
Forced : No

Text
ID : 3
Format : UTF-8
Codec ID : S_TEXT/UTF8
Codec ID/Info : UTF-8 Plain Text
Duration : 1 h 38 min
Bit rate : 48 b/s
Count of elements : 796
Stream size : 35.4 KiB (0%)
Default : Yes
Forced : No

Menu
00:00:00.000 : :Глава 1
00:07:25.111 : :Глава 2
00:13:51.205 : :Глава 3
00:22:25.719 : :Глава 4
00:30:25.865 : :Глава 5
00:39:23.736 : :Глава 6
00:49:44.231 : :Глава 7
00:56:57.580 : :Глава 8
01:06:18.933 : :Глава 9
01:16:04.393 : :Глава 10
01:24:38.698 : :Глава 11
01:33:13.796 : :Глава 12
01:38:40.748 : :Глава 13

pb.wtf



Скачать Кладбище домашних животных через торрент https://d.radikal.ru/d30/1805/58/333ffcb12c27.png Скачать фильм Кладбище домашних животных через торрент бесплантно в хорошем качестве Описание: Доктор Луис Крид переезжает в маленький городок, где его семью ждет большой дом, а самого Луиса — скромная должность лечащего ... 10 10 9
Торрент: Зарегистрирован [2019-01-27 03:53] · скачан: 151 раз
Статус: √ проверено
Размер: 7.77 GB
Как cкачать? Как скачать Кладбище домашних животных через торрент | qTorrent

% Раздел Тема Автор DL S | L
Фильмы (HD 720p, 1080p) (48-60 fps) [ 4.09 GB ] Кладбище домашних животных / Pet Sematary [2019 BDRip-HEVC 1080p 60fps Dub MVO Original] Tiberiumsun69 Скачать
6 | 0
Фильмы [HD 720p, 1080p] (Хороший звук DUB, MVO) [ 14.39 GB ] Кладбище домашних животных / Pet Sematary [2019 BDRip 1080p] DUB [] + 2xMVO sheker187 Скачать
19 | 0
Фильмы 2019 [DVDrip, WEB-DLRip, HDrip] (DUB, MVO) [ 2.19 GB ] Кладбище домашних животных / Pet Sematary [2019 BDRip-AVC] DUB [] + 2xMVO sheker187 Скачать
10 | 0
Фильмы (Blu-ray, BD-Remux, HDDVD) [ 22.63 GB ] Кладбище домашних животных / Pet Sematary [2019 BDRemux 1080p] DUB [] + 2xMVO sheker187 Скачать
4 | 0
Ultra HD (UHD: 2K, 4K, 8K) — видео сверхвысокой чёткости [ 31.51 GB ] Кладбище домашних животных / Pet Sematary [2019 UHD BDRip 2160p] [SDR] DUB [] + 2xMVO sheker187 Скачать
1 | 0
Ultra HD (UHD: 2K, 4K, 8K) — видео сверхвысокой чёткости [ 16.81 GB ] Кладбище домашних животных / Pet Sematary [2019 UHD BDRip 2160p] DUB [] + 2xMVO sheker187 Скачать
1 | 0
Фильмы [HD 720p, 1080p] (Хороший звук DUB, MVO) [ 5.04 GB ] Кладбище домашних животных / Pet Sematary [2019 BDRip 720p] DUB [] + 2xMVO sheker187 Скачать
3 | 0


>> Регистрируемся здесь <<






Отзывы и комментарии о схеме читаем и пишем здесь: ---> Отзывы и комментарии о схеме

Новые благодарочки в телеграм довольных пользователей:
скриншот   скриншот   скриншот   скриншот   скриншот

27-01-2019 06:09 Кладбище домашних животных Скачать торрент  

я думал уже новый фильм, хотел оценитьpb.wtf



27-01-2019 06:19 Кладбище домашних животных Скачать торрент  

Цитата:

Год выпуска: 1989

нас наипали, расходимсяpb.wtf



    Дорогой пользователь! Огромная просьба, поблагодарите релизера, оцените раздачу и оставьте свои комментарий, если Вы скачали Кладбище домашних животных через торрент бесплатно! Внесите свою лепту в развитие PiratBit!
    Комментировать посты могут только пользователи прошедшие не сложную регистрацию
    Показать сообщения:    

    Кладбище домашних животных через торрент
    Скачать бесплатно Кладбище домашних животных
    Кладбище домашних животных скачать торрент
    Кладбище домашних животных смотреть онлайн
    Cкачать фильм Кладбище домашних животных бесплатно
    Кладбище домашних животных скачать торрент в хорошем качестве
    Кладбище домашних животных смотреть онлайн бесплатно в хорошем качестве


    Вы не можете начинать темы
    Вы не можете отвечать на сообщения
    Вы не можете редактировать свои сообщения
    Вы не можете удалять свои сообщения
    Вы не можете голосовать в опросах
    Вы не можете прикреплять файлы к сообщениям
    Вы можете скачивать файлы