Доктор Стрэндж

Лицензия

Добыча

Дубляж

Уэнсдэй

1 сезон

Тор

Дубляж

В эфире

Дубляж

Там, где раки поют

MVO

Властелин колец

1 сезон

Deluxe

pack

Рекомендуем

30

Пиратка

ВАЖНО

ВАЖНО

Ghostwire

Пиратка

jed

RePack

nioh2

RePack

RDR2

RePack

NEED FOR SPEED™ PAYBACK

RePack

скачать торрент

Кинопоиск HD

Острые козырьки 6 сезон

6 сезон

FAR CRY 6

RePack

скачать торрент

Лицензия

скачать торрент

MVO

1

1 сезон

скачать торрент

1 сезон

скачать торрент

Лицензия

  

Звезда родилась / A Star Is Born (Брэдли Купер) [2018, мелодрама, музыка, BDRemux 1080p] Дубляж (rus, ukr) + MVO [HDRezka]

Звезда родилась через торрент pb.wtf

Размер: 28.16 GB | Добавлен: 3 года 10 мес. назад | Торрент скачан:39 раз
Смотреть онлайн | Скачать   

27-01-2019 04:41 Звезда родилась Скачать торрент  

Звезда родилась / A Star Is Born

Год выпуска: 2018
Страна: США
Жанр: мелодрама, музыка
Продолжительность: 02:15:35
Перевод: Дублированный [BD EUR], Профессиональный многоголосый [HDRezka]
Субтитры: Русские (полные, форсированные), украинские (форсированные), английские
Режиссер: Брэдли Купер
В ролях:

Леди Гага (Ally), Брэдли Купер (Jack), Сэм Эллиотт (Bobby), Эндрю Дайс Клэй (Lorenzo), Рафи Гаврон (Rez Gavron), Энтони Рамос (Ramon), Дэйв Шаппелл (George «Noodles» Stone), Алек Болдуин (Alec Baldwin), Марлон Уильямс (Marlon Williams), Брэнди Карлайл (Brandi Carlile), Рон Рифкин (Carl), Бэрри Шебака Хенли (Little Feet)
Описание:
Кантри-музыкант Джексон Мейн, чья карьера быстро катится под откос, однажды знакомится с никому не известной талантливой певицей Элли. Между героями вспыхивает страстный роман. Джек помогает Элли добиться успеха. Но чем стремительнее набирает обороты музыкальная карьера Элли, тем сложнее ему мириться со своей увядающей славой.
Рейтинг:

MPAA: R - Лицам до 17 лет обязательно присутствие взрослого
Качество: BDRemux 1080p
Формат: MKV
Видео: MPEG-4 AVC, 1080p, 1920x1080, 24749 kbps, 23.976 fps
Аудио 1: АС3, 6 ch, 48 kHz, 448 kbps Русский Дубляж - BD EUR
Аудио 2: АС3, 2 ch, 48 kHz, 192 kbps Русский HDRezka
Аудио 3: АС3, 2 ch, 48 kHz, 192 kbps Украинский Дубляж
Аудио 4: :f_56: Dolby TrueHD+Atmos, 8 ch, 48 kHz, 3597 kbps Английский
Аудио 5: :f_56: AC3, 6 ch, 48 kHz, 448 kbps Английский
Навигация по главам: есть

General
Unique ID : 219518231169933088938074312706052865249 (0xA525AC68DA0662AEFD80AAD7B6FC3CE1)
Complete name : G:\ФИЛЬМЫ\A.Star.is.Born.2018.REMUX.mkv
Format : Matroska
Format version : Version 4 / Version 2
File size : 28.2 GiB
Duration : 2 h 15 min
Overall bit rate mode : Variable
Overall bit rate : 29.7 Mb/s
Encoded date : UTC 2019-01-26 22:22:30
Writing application : mkvmerge v20.0.0 ('I Am The Sun') 64-bit
Writing library : libebml v1.3.5 + libmatroska v1.4.8

Video
ID : 1
Format : AVC
Format/Info : Advanced Video Codec
Format profile : [email protected]
Format settings : CABAC / 2 Ref Frames
Format settings, CABAC : Yes
Format settings, RefFrames : 2 frames
Codec ID : V_MPEG4/ISO/AVC
Duration : 2 h 15 min
Bit rate mode : Variable
Bit rate : 24.7 Mb/s
Width : 1 920 pixels
Height : 1 080 pixels
Display aspect ratio : 16:9
Frame rate mode : Constant
Frame rate : 23.976 (24000/1001) FPS
Color space : YUV
Chroma subsampling : 4:2:0
Bit depth : 8 bits
Scan type : Progressive
Bits/(Pixel*Frame) : 0.498
Stream size : 23.5 GiB (83%)
Language : English
Default : Yes
Forced : No

Audio #1
ID : 2
Format : AC-3
Format/Info : Audio Coding 3
Codec ID : A_AC3
Duration : 2 h 15 min
Bit rate mode : Constant
Bit rate : 448 kb/s
Channel(s) : 6 channels
Channel positions : Front: L C R, Side: L R, LFE
Sampling rate : 48.0 kHz
Frame rate : 31.250 FPS (1536 SPF)
Bit depth : 16 bits
Compression mode : Lossy
Stream size : 435 MiB (2%)
Title : Дубляж
Language : Russian
Service kind : Complete Main
Default : Yes
Forced : No

Audio #2
ID : 3
Format : AC-3
Format/Info : Audio Coding 3
Codec ID : A_AC3
Duration : 2 h 15 min
Bit rate mode : Constant
Bit rate : 192 kb/s
Channel(s) : 2 channels
Channel positions : Front: L R
Sampling rate : 48.0 kHz
Frame rate : 31.250 FPS (1536 SPF)
Bit depth : 16 bits
Compression mode : Lossy
Stream size : 186 MiB (1%)
Title : HDRezka
Language : Russian
Service kind : Complete Main
Default : No
Forced : No

Audio #3
ID : 4
Format : AC-3
Format/Info : Audio Coding 3
Codec ID : A_AC3
Duration : 2 h 15 min
Bit rate mode : Constant
Bit rate : 192 kb/s
Channel(s) : 2 channels
Channel positions : Front: L R
Sampling rate : 48.0 kHz
Frame rate : 31.250 FPS (1536 SPF)
Bit depth : 16 bits
Compression mode : Lossy
Stream size : 186 MiB (1%)
Title : Дубляж
Language : Ukrainian
Service kind : Complete Main
Default : No
Forced : No

Audio #4
ID : 5
Format : TrueHD
Format profile : TrueHD+Atmos / TrueHD
Codec ID : A_TRUEHD
Duration : 2 h 15 min
Bit rate mode : Variable
Bit rate : 3 597 kb/s
Maximum bit rate : 5 472 kb/s
Channel(s) : Object Based / 8 channels
Channel positions : Object Based / Front: L C R, Side: L R, Back: L R, LFE
Sampling rate : / 48.0 kHz
Frame rate : 1 200.000 FPS (40 SPF)
Compression mode : Lossless
Stream size : 3.41 GiB (12%)
Language : English
Default : No
Forced : No

Audio #5
ID : 6
Format : AC-3
Format/Info : Audio Coding 3
Codec ID : A_AC3
Duration : 2 h 15 min
Bit rate mode : Constant
Bit rate : 448 kb/s
Channel(s) : 6 channels
Channel positions : Front: L C R, Side: L R, LFE
Sampling rate : 48.0 kHz
Frame rate : 31.250 FPS (1536 SPF)
Bit depth : 16 bits
Compression mode : Lossy
Stream size : 435 MiB (2%)
Language : English
Service kind : Complete Main
Default : No
Forced : No

Text #1
ID : 7
Format : UTF-8
Codec ID : S_TEXT/UTF8
Codec ID/Info : UTF-8 Plain Text
Duration : 2 h 14 min
Bit rate : 10 b/s
Count of elements : 191
Stream size : 10.0 KiB (0%)
Title : Forced
Language : Russian
Default : Yes
Forced : Yes

Text #2
ID : 8
Format : UTF-8
Codec ID : S_TEXT/UTF8
Codec ID/Info : UTF-8 Plain Text
Duration : 2 h 14 min
Bit rate : 95 b/s
Count of elements : 1563
Stream size : 94.6 KiB (0%)
Language : Russian
Default : No
Forced : No

Text #3
ID : 9
Format : UTF-8
Codec ID : S_TEXT/UTF8
Codec ID/Info : UTF-8 Plain Text
Duration : 1 h 26 min
Bit rate : 0 b/s
Count of elements : 8
Stream size : 406 Bytes (0%)
Title : Forced
Language : Ukrainian
Default : No
Forced : No

Text #4
ID : 10
Format : UTF-8
Codec ID : S_TEXT/UTF8
Codec ID/Info : UTF-8 Plain Text
Duration : 2 h 14 min
Bit rate : 70 b/s
Count of elements : 2151
Stream size : 69.3 KiB (0%)
Language : English
Default : No
Forced : No

Menu
00:00:00.000 : :01
00:08:03.316 : :02
00:15:25.675 : :03
00:20:26.100 : :04
00:29:59.840 : :05
00:36:07.832 : :06
00:38:33.520 : :07
00:49:23.669 : :08
00:54:12.291 : :09
00:56:41.648 : :10
01:07:03.645 : :11
01:15:37.533 : :12
01:21:02.357 : :13
01:24:22.015 : :14
01:34:38.298 : :15
01:43:44.802 : :16
01:50:53.063 : :17
02:01:20.607 : :18
02:05:20.430 : :19



Скачать Звезда родилась через торрент https://b.radikal.ru/b28/1901/fe/61c77532bd56.jpg Скачать, смотреть онлайн Звезда родилась бесплантно в хорошем качестве Описание: Кантри-музыкант Джексон Мейн, чья карьера быстро катится под откос, однажды знакомится с никому не известной талантливой певицей ... 10 10 1
Info! Золотая раздача, скачанное не засчитывается.
Торрент: Зарегистрирован [2019-01-27 04:41] · скачан: 39 раз
Статус: √ проверено
Размер: 28.16 GB
Как cкачать? Как скачать Звезда родилась через торрент | UTorrent

28-11-2019 20:33  


Отключить вcю реклaмy на сайте, в т.ч. и в плеере онлайн просмотра!

    Дорогой пользователь! Огромная просьба, поблагодарите релизера, оцените раздачу и оставьте свои комментарий, если Вы скачали Звезда родилась через торрент бесплатно!!
    Комментировать посты могут только пользователи прошедшие не сложную регистрацию
    Показать сообщения:    


    Звезда родилась через торрент
    Скачать бесплатно Звезда родилась
    Звезда родилась скачать торрент
    Звезда родилась смотреть онлайн
    Cкачать фильм Звезда родилась бесплатно
    Звезда родилась скачать торрент в хорошем качестве
    Звезда родилась смотреть онлайн бесплатно в хорошем качестве
    Вы не можете начинать темы
    Вы не можете отвечать на сообщения
    Вы не можете редактировать свои сообщения
    Вы не можете удалять свои сообщения
    Вы не можете голосовать в опросах
    Вы не можете прикреплять файлы к сообщениям
    Вы можете скачивать файлы
    Звезда родилась / A Star Is Born [2018, мелодрама, музыка, BDRemux 1080p] Дубляж + MVO [HDRezka] смотреть онлайн, скачать торрент picoco.icu