Ссылка на приватное зеркало всего за 1$. Внимание количество ограничено!!!

OK

1+1

iTunes

мы

OK

1

WEB-DLRip

Джокер

Пифагор

Ведьмак / The Witcher сериал

iTunes

ПШазам

ОК

Оно 2

iTunes

30
pack

Вам бонус

ВАЖНО

!!Акция!!

Alien_RageХит недели

RePack

Resident Evil 21

ИГРА 18+

pack

RePack

jed

RePack

fifa19

RePack

Assassins Creed: Odyssey

RePack

NEED FOR SPEED™ PAYBACK

4 сезон

9 сезон

Бесстыжие 9 сезон

Все сериалы

все сериалы на PB.wtf

RePack

FAR CRY 5
  

Госнелл: Суд над Крупнейшим серийным убийцей Америки / Gosnell: The Trial of America's Big (Ник Сирси) [2018 г., Драма, история, WEB-DLRip, Любительский (многоголосый)(Синема УС)] pb.wtf

Госнелл: Суд над Крупнейшим серийным убийцей Америки через торрент pb.wtf

Размер: 1.32 GB | Добавлен: 1 год назад | Торрент скачан:133 раза
Скачать  

27-01-2019 08:09 Госнелл: Суд над Крупнейшим серийным убийцей Америки Скачать торрент  

Госнелл: Суд над Крупнейшим серийным убийцей Америки / Gosnell: The Trial of America's Big
Год выпуска: 2018
Страна: США
Жанр: Драма, история
Продолжительность: 01:33:15
Перевод: Любительский (многоголосый)(Синема УС)
Субтитры: Отсутствуют

Режиссер: Ник Сирси

Премьера в мире: 12 октября 2018

rating

В ролях: Амелия Уайт, Майкл Бич, Дин Кэйн, Ник Сирси, Сирина Фиальо, Сара Моррис, О'Шей Брукс, Эрл Биллингс, Дэймон Карни, Кейт Джонс

Описание: Тщательно разработанная операция по разоблачению преступной группы медиков, торгующих наркотиками, приводит полицейских и помощника прокурора Алекса Магуайер к доктору Кермиту Госнеллу, владельцу гинекологической клиники в Пенсильвании. Детективы узнают о фактах прерывания беременности у женщин на поздних сроках, что противозаконно.
Медсестры и пациентки начинают давать показания. К совместной работе подключаются эксперты-криминалисты, фотографы, блогеры, журналисты местных изданий. В 2013 году состоялся суд с участием присяжных, поставивший точку в этой страшной истории.

Доп. информация: Присутствуют вставки текстовой рекламы

Качество: WEB-DLRip
Формат: AVI
Видео кодек: XviD
Аудио кодек: AC3
Видео: XviD, 720x400, ~1636 Kbps
Аудио#1: AC-3, 2 ch, 384 Kbps
скриншот   скриншот   скриншот   скриншот  

Общее
Полное имя : C:\_\Госнелл\Gosnell 2018 WEB-DLRip.avi
Формат : AVI
Формат/Информация : Audio Video Interleave
Профиль формата : OpenDML
Размер файла : 1,32 Гбайт
Продолжительность : 1 ч. 33 м.
Общий поток : 2033 Кбит/сек

Видео
Идентификатор : 0
Формат : MPEG-4 Visual
Профиль формата : Advanced Simple@L5
Параметр BVOP формата : 2
Параметр QPel формата : Нет
Параметр GMC формата : Без точки перехода
Параметр матрицы формата : Default (H.263)
Идентификатор кодека : XVID
Идентификатор кодека/Подсказка : XviD
Продолжительность : 1 ч. 33 м.
Битрейт : 1636 Кбит/сек
Ширина : 720 пикселей
Высота : 400 пикселей
Соотношение сторон : 16:9
Частота кадров : 23,976 (24000/1001) кадра/сек
Цветовое пространство : YUV
Субдискретизация насыщенности : 4:2:0
Битовая глубина : 4 бит
Тип развёртки : Прогрессивная
Метод сжатия : С потерями
Бит/(Пиксели*Кадры) : 0.237
Размер потока : 1,07 Гбайт (80%)
Библиотека кодирования : XviD 1.2.1 (UTC 2008-12-04)

Аудио
Идентификатор : 1
Формат : AC-3
Формат/Информация : Audio Coding 3
Расширение режима : CM (complete main)
Параметр Endianness формата : Big
Идентификатор кодека : 2000
Продолжительность : 1 ч. 33 м.
Вид битрейта : Постоянный
Битрейт : 384 Кбит/сек
Каналы : 2 канала
Расположение каналов : Front: L R
Частота : 48,0 КГц
Частота кадров : 31,250 кадров/сек (1536 spf)
Метод сжатия : С потерями
Размер потока : 256 Мбайт (19%)
Выравнивание : Соединение по промежуткам
Продолжительность промежутка : 32 мс. (0,77 видеокадр)

pb.wtf



Скачать Госнелл: Суд над Крупнейшим серийным убийцей Америки через торрент http://pic1.kartinco.top/images/12/76pjl.jpg Скачать фильм Госнелл: Суд над Крупнейшим серийным убийцей Америки через торрент бесплантно в хорошем качестве Описание: Тщательно разработанная операция по разоблачению преступной группы медиков, торгующих наркотиками, приводит полицейских и ... 10 10 5
Торрент: Зарегистрирован [2019-01-27 08:09] · скачан: 133 раз
Статус: T временная
Размер: 1.32 GB
Как cкачать? Как скачать Госнелл: Суд над Крупнейшим серийным убийцей Америки через торрент | qTorrent

28-11-2019 20:33  

Отключить всю рекламу на сайте

    Дорогой пользователь! Огромная просьба, поблагодарите релизера, оцените раздачу и оставьте свои комментарий, если Вы скачали Госнелл: Суд над Крупнейшим серийным убийцей Америки через торрент бесплатно! Внесите свою лепту в развитие PiratBit!
    Комментировать посты могут только пользователи прошедшие не сложную регистрацию
    Показать сообщения:    

    Госнелл: Суд над Крупнейшим серийным убийцей Америки через торрент
    Скачать бесплатно Госнелл: Суд над Крупнейшим серийным убийцей Америки
    Госнелл: Суд над Крупнейшим серийным убийцей Америки скачать торрент
    Госнелл: Суд над Крупнейшим серийным убийцей Америки смотреть онлайн
    Cкачать фильм Госнелл: Суд над Крупнейшим серийным убийцей Америки бесплатно
    Госнелл: Суд над Крупнейшим серийным убийцей Америки скачать торрент в хорошем качестве
    Госнелл: Суд над Крупнейшим серийным убийцей Америки смотреть онлайн бесплатно в хорошем качестве


    Вы не можете начинать темы
    Вы не можете отвечать на сообщения
    Вы не можете редактировать свои сообщения
    Вы не можете удалять свои сообщения
    Вы не можете голосовать в опросах
    Вы не можете прикреплять файлы к сообщениям
    Вы можете скачивать файлы