Ссылка на приватное зеркало всего за 1$. Внимание количество ограничено!!!

OK

1+1

iTunes

мы

OK

1

WEB-DLRip

Джокер

Пифагор

Ведьмак / The Witcher сериал

Лицензия

ПШазам

ОК

Оно 2

iTunes

30
pack

Вам бонус

ВАЖНО

!!Акция!!

Alien_RageХит недели

RePack

Resident Evil 21

ИГРА 18+

pack

RePack

jed

RePack

fifa19

RePack

Assassins Creed: Odyssey

RePack

NEED FOR SPEED™ PAYBACK

4 сезон

9 сезон

Бесстыжие 9 сезон

Все сериалы

все сериалы на PB.wtf

RePack

FAR CRY 5
  

По обмену / Foreign Exchange (Светлана Цветко) [2019 г., Триллер, WEBRip, Любительский (многоголосый)(Синема УС)] pb.wtf

По обмену через торрент pb.wtf

Размер: 1.33 GB | Добавлен: 11 мес. назад | Торрент скачан:60 раз
Скачать  

27-01-2019 08:21 По обмену Скачать торрент  

По обмену / Foreign Exchange
Год выпуска: 2019
Страна: США
Жанр: Триллер
Продолжительность: 01:25:49
Перевод: Любительский (многоголосый)(Синема УС)
Субтитры: Отсутствуют

Режиссер: Светлана Цветко

rating

В ролях: Хейли МакЛафлин, Даника Ярош, Дилан Уолш, Тери Поло, Мэтт Пассмор, Боти Блисс, Хезер Мазур, Брайс Дарфи, Эшлин Пирс, Кэрри Гибсон

Описание: Студентку по обмену в Америке, Анну, преследует какой-то подозрительный тип. Подруга из колледжа вызывается ей помочь. Но несмотря на все их действия, сталкер снова находит девушку. Студентки решают поехать за город, к родителям подруги-спасительницы. Кажется, жизнь в их маленьком поселке просто идеальна. Даже слишком...

Доп. информация: Присутствуют вставки текстовой рекламы

Качество: WEBRip
Формат: AVI
Видео кодек: XviD
Аудио кодек: AC3
Видео: XviD, 720x400, ~1823 Kbps
Аудио#1: AC-3, 2 ch, 384 Kbps
скриншот   скриншот   скриншот   скриншот  

Общее
Полное имя : C:\_\По обмену\Foreign Exchange 2019 WEBRip.avi
Формат : AVI
Формат/Информация : Audio Video Interleave
Профиль формата : OpenDML
Размер файла : 1,33 Гбайт
Продолжительность : 1 ч. 25 м.
Общий поток : 2220 Кбит/сек

Видео
Идентификатор : 0
Формат : MPEG-4 Visual
Профиль формата : Advanced Simple@L5
Параметр BVOP формата : 2
Параметр QPel формата : Нет
Параметр GMC формата : Без точки перехода
Параметр матрицы формата : Default (H.263)
Идентификатор кодека : XVID
Идентификатор кодека/Подсказка : XviD
Продолжительность : 1 ч. 25 м.
Битрейт : 1823 Кбит/сек
Ширина : 720 пикселей
Высота : 400 пикселей
Соотношение сторон : 16:9
Частота кадров : 23,976 (24000/1001) кадра/сек
Цветовое пространство : YUV
Субдискретизация насыщенности : 4:2:0
Битовая глубина : 4 бит
Тип развёртки : Прогрессивная
Метод сжатия : С потерями
Бит/(Пиксели*Кадры) : 0.264
Размер потока : 1,09 Гбайт (82%)
Библиотека кодирования : XviD 1.2.1 (UTC 2008-12-04)

Аудио
Идентификатор : 1
Формат : AC-3
Формат/Информация : Audio Coding 3
Расширение режима : CM (complete main)
Параметр Endianness формата : Big
Идентификатор кодека : 2000
Продолжительность : 1 ч. 25 м.
Вид битрейта : Постоянный
Битрейт : 384 Кбит/сек
Каналы : 2 канала
Расположение каналов : Front: L R
Частота : 48,0 КГц
Частота кадров : 31,250 кадров/сек (1536 spf)
Метод сжатия : С потерями
Размер потока : 236 Мбайт (17%)
Выравнивание : Соединение по промежуткам
Продолжительность промежутка : 32 мс. (0,77 видеокадр)

pb.wtf



Скачать По обмену через торрент http://pic1.kartinco.top/images/12/drecp.jpg Скачать фильм По обмену через торрент бесплантно в хорошем качестве Описание: Студентку по обмену в Америке, Анну, преследует какой-то подозрительный . Подруга из колледжа вызывается ей помочь. Но ... 10 10 3
Торрент: Зарегистрирован [2019-01-27 08:21] · скачан: 60 раз
Статус: T временная
Размер: 1.33 GB
Как cкачать? Как скачать По обмену через торрент | qTorrent

% Раздел Тема Автор DL S | L
Порно фильмы HD [ 7.27 GB ] Студентка По Обмену 2 / Exchange Student 2 [2016 18+ Teens All Sex Foreign WEB-DL 1080p Оригинальный] nn99nn Скачать
1 | 0
Гонзо [ 2.38 GB ] Студентка По Обмену 2 / Exchange Student 2 [2016 Gonzo18+ Teens All Sex Foreign WEB-DLRip Оригинальный] DJASFUL Скачать
1 | 0
Гонзо [ 1.6 GB ] Няни по обмену / Foreign Nanny Exchange [2015 Gonzo Anal Work Fantasies WEB-DLRip Оригинал] Pir@tya2010 Скачать
1 | 0
Гонзо [ 1.36 GB ] Молодые Проститутки: Иностранки По Обмену / Young Harlots: Foreign Exchange [2010 All sex Oral Anal Legal Teen Foreign DVDRip Оригинал] sheker187 Скачать
1 | 0
Гонзо [ 1.91 GB ] Young Harlots Foreign Exchange / Молодые Проститутки: Иностранка По Обмену [2010 Gonzo Anal DP Creampies DVDRip] Shmel Скачать
1 | 0

28-11-2019 20:33  

Отключить всю рекламу на сайте

    Дорогой пользователь! Огромная просьба, поблагодарите релизера, оцените раздачу и оставьте свои комментарий, если Вы скачали По обмену через торрент бесплатно! Внесите свою лепту в развитие PiratBit!
    Комментировать посты могут только пользователи прошедшие не сложную регистрацию
    Показать сообщения:    

    По обмену через торрент
    Скачать бесплатно По обмену
    По обмену скачать торрент
    По обмену смотреть онлайн
    Cкачать фильм По обмену бесплатно
    По обмену скачать торрент в хорошем качестве
    По обмену смотреть онлайн бесплатно в хорошем качестве


    Вы не можете начинать темы
    Вы не можете отвечать на сообщения
    Вы не можете редактировать свои сообщения
    Вы не можете удалять свои сообщения
    Вы не можете голосовать в опросах
    Вы не можете прикреплять файлы к сообщениям
    Вы можете скачивать файлы