Marvel's Avengers Deluxe Edition (супер цена) 159р. Внимание количество ограничено!!!

2 сезон

iTunes

iTunes

1

iTunes

iTunes

iTunes

WEBRip

iTunes

30
pack

Новость дня

ВАЖНО

!!Акция!!

Alien_RageХит недели

RePack

Horizon Zero Dawn

ИГРА 18+

pack

RePack

jed

!!Акция!!

Alien_Rage

RePack

fifa19

RePack

Assassins Creed: Odyssey

RePack

NEED FOR SPEED™ PAYBACK

4 сезон

9 сезон

Бесстыжие 9 сезон

Все сериалы

все сериалы на PB.wtf

RePack

FAR CRY 5
  

Зимнее предложение / One Winter Proposal (Гари Йэт) [2019 г., Мелодрама, комедия, HDTVRip, Любительский (многоголосый)(Синема УС)] pb.wtf

Зимнее предложение через торрент pb.wtf

Размер: 1.33 GB | Добавлен: 1 год 7 мес. назад | Торрент скачан:55 раз
Скачать  

27-01-2019 09:36 Зимнее предложение Скачать торрент  

Зимнее предложение / One Winter Proposal
Год выпуска: 2019
Страна: США
Жанр: Мелодрама, комедия
Продолжительность: 01:22:06
Перевод: Любительский (многоголосый)(Синема УС)
Субтитры: Отсутствуют

Режиссер: Гари Йэт

rating

В ролях: Тейлор Коул, Джек Тернер, Рукия Бернард, Дьюшэйн Уильямс, Карди Вонг, Тара Сэмюэл, Тереза Вонг, Пол Эссимбр, Стефани Сай

Описание: Старые чувства возрождаются вновь, а существующие разгораются еще ярче, когда четверо друзей возвращаются в лыжный домик, в котором они впервые нашли любовь.

Доп. информация: Присутствуют вставки текстовой рекламы

Качество: HDTVRip
Формат: AVI
Видео кодек: XviD
Аудио кодек: AC3
Видео: XviD, 720x400, ~1926 Kbps
Аудио#1: AC-3, 2 ch, 384 Kbps
скриншот   скриншот   скриншот   скриншот  

Общее
Полное имя : C:\_\Зимнее предложение\One Winter Proposal 2019 HDTVRip.avi
Формат : AVI
Формат/Информация : Audio Video Interleave
Профиль формата : OpenDML
Размер файла : 1,33 Гбайт
Продолжительность : 1 ч. 22 м.
Общий поток : 2322 Кбит/сек

Видео
Идентификатор : 0
Формат : MPEG-4 Visual
Профиль формата : Advanced Simple@L5
Параметр BVOP формата : 2
Параметр QPel формата : Нет
Параметр GMC формата : Без точки перехода
Параметр матрицы формата : Default (H.263)
Идентификатор кодека : XVID
Идентификатор кодека/Подсказка : XviD
Продолжительность : 1 ч. 22 м.
Битрейт : 1926 Кбит/сек
Ширина : 720 пикселей
Высота : 400 пикселей
Соотношение сторон : 16:9
Частота кадров : 23,976 кадра/сек
Частота кадров в оригинале : 2,395 кадра/сек
Цветовое пространство : YUV
Субдискретизация насыщенности : 4:2:0
Битовая глубина : 8 бит
Тип развёртки : Прогрессивная
Метод сжатия : С потерями
Бит/(Пиксели*Кадры) : 0.279
Размер потока : 1,10 Гбайт (83%)
Библиотека кодирования : XviD 1.2.1 (UTC 2008-12-04)

Аудио
Идентификатор : 1
Формат : AC-3
Формат/Информация : Audio Coding 3
Расширение режима : CM (complete main)
Параметр Endianness формата : Big
Идентификатор кодека : 2000
Продолжительность : 1 ч. 22 м.
Вид битрейта : Постоянный
Битрейт : 384 Кбит/сек
Каналы : 2 канала
Расположение каналов : Front: L R
Частота : 48,0 КГц
Частота кадров : 31,250 кадров/сек (1536 spf)
Метод сжатия : С потерями
Размер потока : 226 Мбайт (17%)
Выравнивание : Соединение по промежуткам
Продолжительность промежутка : 32 мс. (0,77 видеокадр)

pb.wtf



Скачать Зимнее предложение через торрент http://pic1.kartinco.top/images/12/vw3iw.jpg Скачать фильм Зимнее предложение через торрент бесплантно в хорошем качестве Описание: Старые чувства возрождаются вновь, а существующие разгораются еще ярче, когда четверо друзей возвращаются в лыжный домик, в ... 10 10 2
Торрент: Зарегистрирован [2019-01-27 09:36] · скачан: 55 раз
Статус: T временная
Размер: 1.33 GB
Как cкачать? Как скачать Зимнее предложение через торрент | qTorrent

28-11-2019 20:33  

Отключить всю рекламу на сайте

    Дорогой пользователь! Огромная просьба, поблагодарите релизера, оцените раздачу и оставьте свои комментарий, если Вы скачали Зимнее предложение через торрент бесплатно! Внесите свою лепту в развитие PiratBit!
    Комментировать посты могут только пользователи прошедшие не сложную регистрацию
    Показать сообщения:    

    Зимнее предложение через торрент
    Скачать бесплатно Зимнее предложение
    Зимнее предложение скачать торрент
    Зимнее предложение смотреть онлайн
    Cкачать фильм Зимнее предложение бесплатно
    Зимнее предложение скачать торрент в хорошем качестве
    Зимнее предложение смотреть онлайн бесплатно в хорошем качестве


    Вы не можете начинать темы
    Вы не можете отвечать на сообщения
    Вы не можете редактировать свои сообщения
    Вы не можете удалять свои сообщения
    Вы не можете голосовать в опросах
    Вы не можете прикреплять файлы к сообщениям
    Вы можете скачивать файлы