Ссылка на приватное зеркало нашего сайта всего за 1$. Внимание количество ограничено!!!

2 сезон

iTunes

1 сезон

1

iTunes

iTunes

iTunes

1 сезон

RePack

30

ИГРА 18+

pack

ВАЖНО

!!Акция!!

Alien_RageХит недели

RePack

MK11
pack

Забери бонус

RePack

jed

!!Акция!!

Alien_Rage

RePack

fifa19

RePack

Assassins Creed: Odyssey

RePack

NEED FOR SPEED™ PAYBACK

4 сезон

9 сезон

Бесстыжие 9 сезон

Все сериалы

все сериалы на PB.wtf

RePack

FAR CRY 5
  

Миллионерша / Серии: 1-4 из 4 (Александр Созонов) [2017, Мелодрама, WEB-DL 1080p] pb.wtf

Миллионерша через торрент pb.wtf

Размер: 3.94 GB | Добавлен: 1 год 8 мес. назад | Торрент скачан:87 раз
Скачать  

27-01-2019 10:13 Миллионерша Скачать торрент  

МиллионершаГод выпуска: 2017
Страна: Россия
Жанр: Мелодрама
Продолжительность: ~ 00:47:00 серия
Субтитры: отсутствуют

Режиссер: Александр Созонов



В ролях:

Елена Полянская, Сергей Перегудов, Глафира Козулина, Эмилия Спивак, Михаил Соловьёв, Михаил Химичев, Сергей Тэсслер, Никита Чеканов, Алёна Савастова

Описание:

Свете никогда не везло. Поэтому она совсем не удивилась, когда для грандиозного финального «бамс» по всем фронтам судьба выбрала ее день рождения. Света разом лишилась и личного счастья, и крыши над головой, да еще и начальник лишил премии. Бездомная, безмужняя и без двух минут безработная, Света получает от подруг в подарок лотерейный билет. Сами подруги на день рождения остаться не смогли — Света даже не удивилась. Если не везет — то по полной программе. Света даже не подозревает, что уже завтра ее жизнь изменится. Билет окажется выигрышным, а сама Света превратится в миллионершу. Теперь Света может все! Купить квартиру, поменять неинтересную работу на новую, превратиться из золушки в принцессу. А еще — устроить, наконец, свою личную жизнь. Тем более, что кандидаты имеются. Помогут ли Свете выигранные миллионы? Сделают ли из неудачницы — счастливицу?

Качество: WEB-DL 1080p
Формат: MKV

Видео: MPEG4 AVC Video, H264, 16:9, 1920x1080, 25 fps, ~2740 kbps, 0.053 bit/pixel
Аудио: AC3 Dolby Digital, 44,1 kHz, 2/0 (L,R) ch, 192 kbps
скриншот  скриншот  скриншот  скриншот  скриншот  

General
Unique ID : 178366576487018926548960021721254941748 (0x8630272FD1CEC75EA226C6078ADF5434)
Complete name : D:\Milionercha.2017.WEB-DL.(1080p).Kinozal.by.Olyanchik\01.Milionercha.2017.WEB-DL.(1080p).Kinozal.by.Olyanchik.mkv
Format : Matroska
Format version : Version 4 / Version 2
File size : 979 MiB
Duration : 45mn 49s
Overall bit rate : 2 987 Kbps
Encoded date : UTC 2017-11-11 15:43:54
Writing application : mkvmerge v9.6.0 ('Slave To Your Mind') 64bit
Writing library : libebml v1.3.4 + libmatroska v1.4.5
DURATION : 00:45:49.788000000
NUMBER_OF_FRAMES : 78949
NUMBER_OF_BYTES : 65994918
_STATISTICS_WRITING_APP : mkvmerge v9.6.0 ('Slave To Your Mind') 64bit
_STATISTICS_WRITING_DATE_UTC : 2017-11-11 15:43:54
_STATISTICS_TAGS : BPS DURATION NUMBER_OF_FRAMES NUMBER_OF_BYTES

Video
ID : 1
Format : AVC
Format/Info : Advanced Video Codec
Format profile : High@L4.0
Format settings, CABAC : Yes
Format settings, ReFrames : 2 frames
Codec ID : V_MPEG4/ISO/AVC
Duration : 45mn 49s
Bit rate : 2 735 Kbps
Width : 1 920 pixels
Height : 1 080 pixels
Display aspect ratio : 16:9
Frame rate mode : Constant
Frame rate : 25.000 fps
Color space : YUV
Chroma subsampling : 4:2:0
Bit depth : 8 bits
Scan type : Progressive
Bits/(Pixel*Frame) : 0.053
Stream size : 897 MiB (92%)
Default : Yes
Forced : No
Color primaries : BT.709
Transfer characteristics : BT.709
Matrix coefficients : BT.709

Audio
ID : 2
Format : AC-3
Format/Info : Audio Coding 3
Mode extension : CM (complete main)
Format settings, Endianness : Big
Codec ID : A_AC3
Duration : 45mn 49s
Bit rate mode : Constant
Bit rate : 192 Kbps
Channel count : 2 channels
Channel positions : Front: L R
Sampling rate : 44.1 KHz
Bit depth : 16 bits
Compression mode : Lossy
Stream size : 62.9 MiB (6%)
Default : Yes
Forced : No

pb.wtf



Скачать Миллионерша через торрент http://i97.fastpic.ru/big/2017/1111/0b/b787dae35b530aec37d3ca17a072e50b.jpg Скачать фильм Миллионерша через торрент бесплантно в хорошем качестве Описание: Свете никогда не везло. Поэтому она совсем не удивилась, когда для грандиозного финального «бамс» по всем фронтам судьба выбрала ... 10 10 3
Торрент: Зарегистрирован [2019-01-27 10:13] · скачан: 87 раз
Статус: √ проверено
Размер: 3.94 GB
Как cкачать? Как скачать Миллионерша через торрент | qTorrent

% Раздел Тема Автор DL S | L
Наши сериалы [ 2.25 GB ] Миллионерша / Серии: 1-4 из 4 [2017 SATRip-AVC] aleksan55 Скачать
1 | 0
Наши сериалы [ 2.57 GB ] Миллионерша / Серия 1-4 из 4 / [2017 Мело SATRip] oleg8 Скачать
1 | 0

28-11-2019 20:33  

Отключить всю рекламу на сайте

    Дорогой пользователь! Огромная просьба, поблагодарите релизера, оцените раздачу и оставьте свои комментарий, если Вы скачали Миллионерша через торрент бесплатно! Внесите свою лепту в развитие PiratBit!
    Комментировать посты могут только пользователи прошедшие не сложную регистрацию
    Показать сообщения:    

    Миллионерша через торрент
    Скачать бесплатно Миллионерша
    Миллионерша скачать торрент
    Миллионерша смотреть онлайн
    Cкачать фильм Миллионерша бесплатно
    Миллионерша скачать торрент в хорошем качестве
    Миллионерша смотреть онлайн бесплатно в хорошем качестве


    Вы не можете начинать темы
    Вы не можете отвечать на сообщения
    Вы не можете редактировать свои сообщения
    Вы не можете удалять свои сообщения
    Вы не можете голосовать в опросах
    Вы не можете прикреплять файлы к сообщениям
    Вы можете скачивать файлы