Ссылка на приватное зеркало нашего сайта всего за 1$. Внимание количество ограничено!!!

2 сезон

iTunes

1 сезон

1

2 сезон

2 сезон

iTunes

1 сезон

RePack

30

Ultimate

ВАЖНО

ИГРА 18+

pack

RePack

MK11
pack

Забери бонус

RePack

jed

!!Акция!!

Alien_Rage

RePack

fifa19

RePack

Assassins Creed: Odyssey

RePack

NEED FOR SPEED™ PAYBACK

4 сезон

9 сезон

Бесстыжие 9 сезон

Все сериалы

все сериалы на PB.wtf

RePack

FAR CRY 5
  

Романовы / The Romanoffs / Сезон: 1 / Серии: 1-8 из 8 (Мэттью Уэйнер) [2018, Драма, WEBRip] MVO [Good People] pb.wtf

Романовы через торрент pb.wtf

Размер: 7.55 GB | Добавлен: 1 год 10 мес. назад | Торрент скачан:30 раз
Скачать  

27-01-2019 13:55 Романовы Скачать торрент  

Романовы / The Romanoffs

Год выпуска: 2018
Страна: США
Жанр: драма
Продолжительность: ~ 01:25:00
Перевод: Профессиональный (многоголосый закадровый) | Good People присутствует процент ненормативной лексики
Субтитры: отсутствуют

Режиссёр: Мэттью Уэйнер

В ролях:

Аарон Экхарт, Майк Дойл, Джей Джей Филд, Иева Андреевайте, Эллен Маргарит Калливан, Роб Эворс, Синди Дэй, Шеннон Данг, Иван Г’Вера, Мэгги Бенедикт, Скарлет Дергаль, Дэймон С. Филдс, Джошуа Карлон, Пэкстон Бут, Темирлан Блаев, Марилин Урибе и др.

Описание:

Новый проект, который предлагает зрителям американский взгляд на жизнь людей, которые считают себя потомками царского рода Романовых. История правящей семьи тянется с семнадцатого века. Княжение, царствование и имперская Влacть остались на страницах истории России. Современная жизнь страны отличается от той, что была столетие назад, однако, несмотря на факт истребления большевиками представителей имперской семьи, находятся люди, которые утверждают, что являются прямыми потомками Романовых. В американской драме сыграют такие известные актеры, как Майк Дойл, Аарон Экхарт, Кристина Хендрикс и многие другие. Автором выступит Мэттью Вайнер.



Качество: WEBRip
Формат: AVI

Видео: XviD, ~ 1400 kbps, 720x400, 23.976 fps
Аудио 1: MP3, 48,0 КГц, 2 ch, 128 kbps - RUS
Аудио 2: MP3, 48,0 КГц, 2 ch, 128 kbps - ENG


Реклама: аудио, два раза в начале и в конце по 13 секунд
Общее
Полное имя                               : I:\GoodPeople\The Romanoffs. Season 1 (WEBRip l 400p l Good People)\The.Romanoffs.S01E01.WEBRip.Rus.Eng.GoodPeople.avi
Формат                                   : AVI
Формат/Информация                        : Audio Video Interleave
Размер файла                             : 1007 Мбайт
Продолжительность                        : 1 ч. 24 м.
Общий поток                              : 1665 Кбит/сек
Программа кодирования                    : VirtualDubMod 1.5.10.3 | www.virtualdub-fr.org || (build 2550/release)
Библиотека кодирования                   : VirtualDubMod build 2550/release

Видео
Идентификатор                            : 0
Формат                                   : MPEG-4 Visual
Профиль формата                          : Advanced Simple@L5
Настройки формата                        : BVOP1 / Custom Matrix
Параметр BVOP формата                    : 1
Параметр QPel формата                    : Нет
Параметр GMC формата                     : Без точки перехода
Параметр матрицы формата                 : Выборочная
Идентификатор кодека                     : XVID
Идентификатор кодека/Подсказка           : XviD
Продолжительность                        : 1 ч. 24 м.
Битрейт                                  : 1395 Кбит/сек
Ширина                                   : 720 пикселей
Высота                                   : 400 пикселей
Соотношение сторон                       : 16:9
Частота кадров                           : 23,976 (24000/1001) кадра/сек
Цветовое пространство                    : YUV
Субдискретизация насыщенности            : 4:2:0
Битовая глубина                          : 8 бит
Тип развёртки                            : Прогрессивная
Метод сжатия                             : С потерями
Бит/(Пиксели*Кадры)                      : 0.202
Размер потока                            : 844 Мбайт (84%)
Библиотека кодирования                   : XviD 73

Аудио #1
Идентификатор                            : 1
Формат                                   : MPEG Audio
Версия формата                           : Version 1
Профиль формата                          : Layer 3
Настройки формата                        : Joint stereo / MS Stereo
Идентификатор кодека                     : 55
Идентификатор кодека/Подсказка           : MP3
Продолжительность                        : 1 ч. 24 м.
Вид битрейта                             : Постоянный
Битрейт                                  : 128 Кбит/сек
Каналы                                   : 2 канала
Частота                                  : 48,0 КГц
Метод сжатия                             : С потерями
Размер потока                            : 77,4 Мбайт (8%)
Выравнивание                             : Соединение по промежуткам
Продолжительность промежутка             : 42  мс. (1,00 видеокадр)
Время предзагрузки промежутка            : 504  мс.

Аудио #2
Идентификатор                            : 2
Формат                                   : MPEG Audio
Версия формата                           : Version 1
Профиль формата                          : Layer 3
Настройки формата                        : Joint stereo / MS Stereo
Идентификатор кодека                     : 55
Идентификатор кодека/Подсказка           : MP3
Продолжительность                        : 1 ч. 24 м.
Вид битрейта                             : Постоянный
Битрейт                                  : 128 Кбит/сек
Каналы                                   : 2 канала
Частота                                  : 48,0 КГц
Метод сжатия                             : С потерями
Размер потока                            : 77,4 Мбайт (8%)
Выравнивание                             : Соединение по промежуткам
Продолжительность промежутка             : 42  мс. (1,00 видеокадр)
Время предзагрузки промежутка            : 504  мс.
скриншот  скриншот  скриншот  скриншот  
Когда раздача ведётся путём добавления новых серий, при каждом добавлении создётся новый торрент. Чтобы начать докачку новой серии, пользователям необходимо сделать следующее:
(1) остановить скачивание,
(2) удалить старый торрент у себя из клиента (старые серии удалять не надо),
(3) скачать новый торрент и запустить его у себя в клиенте вместо старого, при этом указать клиенту путь в старую папку, куда и должно происходить скачивание новых серий.
Ваш клиент при этом должен произвести хеширование (проверку) старой папки (если не производит сам - помогите ему сделать это), и будет докачивать только те серии, которых у вас ещё нет. Старые серии при этом не удаляются, а продолжают раздаваться!
Eсли вы уже удалили старые серии, то предотвратить повторную закачку старых серий можно, отжав галочку в соответсвующих местах при запуске нового торрента. По возможности, желательно не удалять старые серии как можно дольше, чтобы релизёр не столько продолжал раздавать старые серии, а смог сконцентрироваться на новых.
pb.wtf



Скачать Романовы через торрент http://i97.fastpic.ru/big/2018/1112/b7/f1c6ec861e332b3e5fbbb2e65e77a2b7.png Скачать фильм Романовы через торрент бесплантно в хорошем качестве Описание: Новый проект, который предлагает зрителям американский взгляд на жизнь людей, которые считают себя потомками царского рода ... 10 10 4
Торрент: Зарегистрирован [2019-01-27 13:55] · скачан: 30 раз
Статус: √ проверено
Размер: 7.55 GB
Как cкачать? Как скачать Романовы через торрент | qTorrent

% Раздел Тема Автор DL S | L
Зарубежные сериалы [ 8.32 GB ] Романовы / The Romanoffs / Сезон: 1 / Серии: 1-8 из 8 [2018 WEB-DLRip] MVO [NewStudio] bober100 Скачать
1 | 0
Зарубежные сериалы [ 16.37 GB ] Романовы / The Romanoffs / Сезон: 1 / Серии: 1-8 из 8 [2018 WEB-DL 720p] MVO [NewStudio] bober100 Скачать
1 | 0
Зарубежные сериалы [ 43.7 GB ] Романовы / The Romanoffs / Сезон: 1 / Серии: 1-8 из 8 [2018 WEB-DL 1080p] [MVO] killermax2013 Скачать
1 | 0
Зарубежные сериалы [ 15.05 GB ] Романовы / The Romanoffs / Сезон: 1 / Серии: 1-8 из 8 [2018 WEBRip 720p] [MVO] killermax2013 Скачать
1 | 0
Зарубежные сериалы [ 15.05 GB ] Романовы / The Romanoffs / Сезон: 1 / Серии: 1-7 из 8 [2018 WEB-DL 720p] [DVO] killermax2013 Скачать
1 | 0

28-11-2019 20:33  

Отключить всю рекламу на сайте

    Дорогой пользователь! Огромная просьба, поблагодарите релизера, оцените раздачу и оставьте свои комментарий, если Вы скачали Романовы через торрент бесплатно! Внесите свою лепту в развитие PiratBit!
    Комментировать посты могут только пользователи прошедшие не сложную регистрацию
    Показать сообщения:    

    Романовы через торрент
    Скачать бесплатно Романовы
    Романовы скачать торрент
    Романовы смотреть онлайн
    Cкачать фильм Романовы бесплатно
    Романовы скачать торрент в хорошем качестве
    Романовы смотреть онлайн бесплатно в хорошем качестве


    Вы не можете начинать темы
    Вы не можете отвечать на сообщения
    Вы не можете редактировать свои сообщения
    Вы не можете удалять свои сообщения
    Вы не можете голосовать в опросах
    Вы не можете прикреплять файлы к сообщениям
    Вы можете скачивать файлы