Ссылка на приватное зеркало всего за 1$. Внимание количество ограничено!!!

OK

1+1

iTunes

мы

OK

1

WEB-DLRip

Джокер

Пифагор

Ведьмак / The Witcher сериал

iTunes

ПШазам

ОК

Оно 2

iTunes

30
pack

Вам бонус

ВАЖНО

!!Акция!!

Alien_RageХит недели

RePack

Resident Evil 21

ИГРА 18+

pack

RePack

jed

RePack

fifa19

RePack

Assassins Creed: Odyssey

RePack

NEED FOR SPEED™ PAYBACK

4 сезон

9 сезон

Бесстыжие 9 сезон

Все сериалы

все сериалы на PB.wtf

RePack

FAR CRY 5
  

Воспитательница / The Kindergarten Teacher (Сара Коланджело) [2018, драма, WEB-DL 1080p] MVO [Официальный звук] pb.wtf

Воспитательница через торрент pb.wtf

Размер: 4.33 GB | Добавлен: 11 мес. назад | Торрент скачан:53 раза
Скачать  

27-01-2019 14:48 Воспитательница Скачать торрент  

Воспитательница / The Kindergarten Teacher Год выпуска: 2018
Страна: США
Жанр: драма
Продолжительность: 01:38:04
Перевод: Профессиональный (многоголосый) | Официальный звук
Субтитры:

Режиссер: Сара Коланджело

rating

В ролях:

Мэгги Джилленхол, Роза Салазар, Гаэль Гарсиа Берналь, Анна Барышников, Дэйзи Тахэн, Майкл Чернус, Аджай Найду, Паркер Севак, Стефания Макарова, Хейли Мерфи

Описание:

Лиза живёт с мужем и двумя детьми-подростками в Статен-Айленде, неподалёку от Нью-Йорка. Ей 40 лет, полжизни она работает воспитательницей в детском саду. И ещё у неё есть страсть - поэзия. Однажды у одного из своих пятилетних воспитанников Лиза открывает гениальный поэтический талант. Она становится одержима вундеркиндом и пытается спасти его от материального мира и примитивности его родителей. Чтобы воспитать поэта и вспомнить свою мечту, она рискует карьерой, семьёй и свободой.

Качество: WEB-DL 1080p
Формат: MKV

Видео: h.264, 5 942 kb/s, 1920x802
Аудио#1: Русский, (AC3, 2 ch, 384 Кбит/с)
скриншот  скриншот  скриншот  

Общее
Уникальный идентификатор : 204674044362202918208471772353917190275 (0x99FAC97E92B0920685C606F13F158083)
Полное имя : D:\The.Kindergarten.Teacher.2O18.Pof.WEB-DL.1O8Op_KOSHARA.mkv
Формат : Matroska
Версия формата : Version 2
Размер файла : 4,33 Гбайт
Продолжительность : 1 ч. 38 м.
Режим общего битрейта : Переменный
Общий поток : 6328 Кбит/сек
Дата кодирования : UTC 2019-01-27 11:07:02
Программа кодирования : mkvmerge v8.3.0 ('Over the Horizon') 64bit
Библиотека кодирования : libebml v1.3.1 + libmatroska v1.4.2

Видео
Идентификатор : 1
Формат : AVC
Формат/Информация : Advanced Video Codec
Профиль формата : High@L4.1
Параметр CABAC формата : Да
Параметр RefFrames формата : 4 кадра
Идентификатор кодека : V_MPEG4/ISO/AVC
Продолжительность : 1 ч. 38 м.
Вид битрейта : Переменный
Битрейт : 5942 Кбит/сек
Максимальный битрейт : 6900 Кбит/сек
Ширина : 1920 пикселей
Высота : 802 пикселя
Соотношение сторон : 2,40:1
Режим частоты кадров : Постоянный
Частота кадров : 23,976 (24000/1001) кадра/сек
Стандарт вещания : Component
Цветовое пространство : YUV
Субдискретизация насыщенности : 4:2:0
Битовая глубина : 8 бит
Тип развёртки : Прогрессивная
Бит/(Пиксели*Кадры) : 0.158
Размер потока : 3,99 Гбайт (92%)
Default : Да
Forced : Нет
Цветовой диапазон : Limited
Основные цвета : BT.709
Характеристики трансфера : BT.709
Коэффициенты матрицы : BT.709

Аудио
Идентификатор : 2
Формат : AC-3
Формат/Информация : Audio Coding 3
Расширение режима : CM (complete main)
Параметр Endianness формата : Big
Идентификатор кодека : A_AC3
Продолжительность : 1 ч. 38 м.
Вид битрейта : Постоянный
Битрейт : 384 Кбит/сек
Каналы : 2 канала
Расположение каналов : Front: L R
Частота : 48,0 КГц
Частота кадров : 31,250 кадров/сек (1536 spf)
Метод сжатия : С потерями
Размер потока : 269 Мбайт (6%)
Default : Да
Forced : Нет

pb.wtf



Скачать Воспитательница через торрент http://img10.lostpic.net/2018/10/15/a9b47763dc110c2f1bf60a35be435845.jpg Скачать фильм Воспитательница через торрент бесплантно в хорошем качестве Описание: Лиза живёт с мужем и двумя детьми-подростками в Статен-Айленде, неподалёку от Нью-Йорка. Ей 40 лет, полжизни она работает ... 9.4 10 5
Торрент: Зарегистрирован [2019-01-27 14:48] · скачан: 53 раз
Статус: T временная
Размер: 4.33 GB
Как cкачать? Как скачать Воспитательница через торрент | qTorrent

% Раздел Тема Автор DL S | L
Фильмы 2018 [DVDrip, WEB-DLRip, HDrip] (DUB, MVO) [ 1.42 GB ] Воспитательница / The Kindergarten Teacher [2018 BDRip] MVO Twi7ter Скачать
5 | 0
T Фильмы (мультфильмы) cо спонсором показа (Новинки AVI/MKV) [ 3.85 GB ] Воспитательница / The Kindergarten Teacher [2018 WEB-DL 720p] MVO [Официальный звук] bober100 Скачать
1 | 0
T Фильмы (мультфильмы) cо спонсором показа (Новинки AVI/MKV) [ 1.37 GB ] Воспитательница / The Kindergarten Teacher [2018 WEB-DLRip] MVO [Официальный звук] bober100 Скачать
1 | 0
Фильмы (WEB-DL 720p, 1080p) [ 3.51 GB ] Воспитательница / The Kindergarten Teacher [2018 WEBRip 720p] MVO [HDrezka Studio] bober100 Скачать
2 | 0
Фильмы 2018 [DVDrip, WEB-DLRip, HDrip] (DUB, MVO) [ 1.45 GB ] Воспитательница / The Kindergarten Teacher [2018 WEB-DLRip] MVO [HDrezka Studio] bober100 Скачать
3 | 0

28-11-2019 20:33  

Отключить всю рекламу на сайте

    Дорогой пользователь! Огромная просьба, поблагодарите релизера, оцените раздачу и оставьте свои комментарий, если Вы скачали Воспитательница через торрент бесплатно! Внесите свою лепту в развитие PiratBit!
    Комментировать посты могут только пользователи прошедшие не сложную регистрацию
    Показать сообщения:    

    Воспитательница через торрент
    Скачать бесплатно Воспитательница
    Воспитательница скачать торрент
    Воспитательница смотреть онлайн
    Cкачать фильм Воспитательница бесплатно
    Воспитательница скачать торрент в хорошем качестве
    Воспитательница смотреть онлайн бесплатно в хорошем качестве


    Вы не можете начинать темы
    Вы не можете отвечать на сообщения
    Вы не можете редактировать свои сообщения
    Вы не можете удалять свои сообщения
    Вы не можете голосовать в опросах
    Вы не можете прикреплять файлы к сообщениям
    Вы можете скачивать файлы