Ссылка на приватное зеркало всего за 1$. Внимание количество ограничено!!!

OK

1+1

iTunes

мы

OK

1

WEB-DLRip

Джокер

Пифагор

Ведьмак / The Witcher сериал

Лицензия

ПШазам

ОК

Оно 2

iTunes

30
pack

Вам бонус

ВАЖНО

!!Акция!!

Alien_RageХит недели

RePack

Resident Evil 21

ИГРА 18+

pack

RePack

jed

RePack

fifa19

RePack

Assassins Creed: Odyssey

RePack

NEED FOR SPEED™ PAYBACK

4 сезон

9 сезон

Бесстыжие 9 сезон

Все сериалы

все сериалы на PB.wtf

RePack

FAR CRY 5
  

Романтики «303» / 303 (Ханс Вайнгартнер) [2018, комедия, мелодрама, BDRip 720p] MVO ["Синема УС"] pb.wtf

Романтики «303» через торрент pb.wtf

Размер: 7.16 GB | Добавлен: 11 мес. назад | Торрент скачан:64 раза
Скачать  

27-01-2019 15:30 Романтики «303» Скачать торрент  

Романтики «303» / 303 Год выпуска: 2018
Страна: Германия
Жанр: комедия, мелодрама
Продолжительность: 02:25:13
Перевод: Любительский (многоголосый) | "Синема УС"
Субтитры: отсутствуют

Режиссер: Ханс Вайнгартнер

rating

В ролях:

Мала Эмде, Антон Спикер, Арндт-Шверинг Сонрей, Томас Шмукерт, Йорг Бундшух, Стивен Ланж, Мартин Нойхаус, Ханна Шрёдер, София Чанетт

Описание:

24-летняя студентка Юле садится в старенький кемпер «Мерседес 303» и отправляется через всю Европу на встречу со своим бойфрендом Алексом. Ее случайным попутчиком становится Ян, студент-политолог, мечтающий найти в Испании родного отца, которого никогда не видел. Пока за окном сменяются пейзажи Германии, Бельгии, Франции и Португалии, герои коротают время за разговорами обо всем на свете. Они рассуждают, спорят, ссорятся и все больше привязываются друг к другу. Новая влюбленность не входит в их планы, но разве можно сопротивляться чувству, если ты молод, а мир вокруг удивительно прекрасен...

Качество: BDRip 720p
Формат: MKV

Видео: h.264, 6 605 kb/s, 1280x696
Аудио#1: Русский (AC3, 2 ch, 448 Кбит/с)
скриншот  скриншот  скриншот  

Общее
Уникальный идентификатор : 201576919177981699060454980598131535541 (0x97A64D6EF3530DBD9A777A85BAA32EB5)
Полное имя : D:\303.2O18.P.BDRip.72Op_KOSHARA.mkv
Формат : Matroska
Версия формата : Version 2
Размер файла : 7,16 Гбайт
Продолжительность : 2 ч. 25 м.
Режим общего битрейта : Переменный
Общий поток : 7055 Кбит/сек
Дата кодирования : UTC 2019-01-27 12:49:06
Программа кодирования : mkvmerge v8.3.0 ('Over the Horizon') 64bit
Библиотека кодирования : libebml v1.3.1 + libmatroska v1.4.2

Видео
Идентификатор : 1
Формат : AVC
Формат/Информация : Advanced Video Codec
Профиль формата : High@L4.1
Параметр CABAC формата : Да
Параметр RefFrames формата : 4 кадра
Идентификатор кодека : V_MPEG4/ISO/AVC
Продолжительность : 2 ч. 25 м.
Вид битрейта : Переменный
Битрейт : 6605 Кбит/сек
Максимальный битрейт : 7500 Кбит/сек
Ширина : 1280 пикселей
Высота : 696 пикселей
Соотношение сторон : 1,85:1
Режим частоты кадров : Постоянный
Частота кадров : 23,976 (24000/1001) кадра/сек
Стандарт вещания : Component
Цветовое пространство : YUV
Субдискретизация насыщенности : 4:2:0
Битовая глубина : 8 бит
Тип развёртки : Прогрессивная
Бит/(Пиксели*Кадры) : 0.303
Размер потока : 6,56 Гбайт (92%)
Default : Да
Forced : Нет
Цветовой диапазон : Limited
Основные цвета : BT.709
Характеристики трансфера : BT.709
Коэффициенты матрицы : BT.709

Аудио
Идентификатор : 2
Формат : AC-3
Формат/Информация : Audio Coding 3
Расширение режима : CM (complete main)
Параметр Endianness формата : Big
Идентификатор кодека : A_AC3
Продолжительность : 2 ч. 25 м.
Вид битрейта : Постоянный
Битрейт : 448 Кбит/сек
Каналы : 2 канала
Расположение каналов : Front: L R
Частота : 48,0 КГц
Частота кадров : 31,250 кадров/сек (1536 spf)
Метод сжатия : С потерями
Размер потока : 465 Мбайт (6%)
Default : Да
Forced : Нет

pb.wtf



Скачать Романтики «303» через торрент https://c.radikal.ru/c38/1901/65/84878598ff38.jpg Скачать фильм Романтики «303» через торрент бесплантно в хорошем качестве Описание: 24-летняя студентка Юле садится в старенький кемпер «Мерседес 303» и отправляется через всю Европу на встречу со своим бойфрендом ... 10 10 2
Торрент: Зарегистрирован [2019-01-27 15:30] · скачан: 64 раз
Статус: # сомнительно
Размер: 7.16 GB
Как cкачать? Как скачать Романтики «303» через торрент | qTorrent

% Раздел Тема Автор DL S | L
T Фильмы (мультфильмы) cо спонсором показа (Новинки AVI/MKV) [ 2.18 GB ] Романтики «303» / 303 [2018 HDRip] MVO ["Синема УС"] bober100 Скачать
1 | 0
T Фильмы (мультфильмы) cо спонсором показа (Новинки AVI/MKV) [ 1.46 GB ] Романтики «303» / 303 [2018 HDRip] MVO ["Синема УС"] bober100 Скачать
1 | 0

28-11-2019 20:33  

Отключить всю рекламу на сайте

    Дорогой пользователь! Огромная просьба, поблагодарите релизера, оцените раздачу и оставьте свои комментарий, если Вы скачали Романтики «303» через торрент бесплатно! Внесите свою лепту в развитие PiratBit!
    Комментировать посты могут только пользователи прошедшие не сложную регистрацию
    Показать сообщения:    

    Романтики «303» через торрент
    Скачать бесплатно Романтики «303»
    Романтики «303» скачать торрент
    Романтики «303» смотреть онлайн
    Cкачать фильм Романтики «303» бесплатно
    Романтики «303» скачать торрент в хорошем качестве
    Романтики «303» смотреть онлайн бесплатно в хорошем качестве


    Вы не можете начинать темы
    Вы не можете отвечать на сообщения
    Вы не можете редактировать свои сообщения
    Вы не можете удалять свои сообщения
    Вы не можете голосовать в опросах
    Вы не можете прикреплять файлы к сообщениям
    Вы можете скачивать файлы