Marvel's Avengers Deluxe Edition (супер цена) 159р. Внимание количество ограничено!!!

2 сезон

iTunes

iTunes

1

iTunes

iTunes

iTunes

WEBRip

iTunes

30
pack

Новость дня

ВАЖНО

!!Акция!!

Alien_RageХит недели

RePack

Horizon Zero Dawn

ИГРА 18+

pack

RePack

jed

!!Акция!!

Alien_Rage

RePack

fifa19

RePack

Assassins Creed: Odyssey

RePack

NEED FOR SPEED™ PAYBACK

4 сезон

9 сезон

Бесстыжие 9 сезон

Все сериалы

все сериалы на PB.wtf

RePack

FAR CRY 5
  

Романтики «303» / 303 (Ханс Вайнгартнер) [2018, комедия, мелодрама, BDRip 720p] MVO [iTunes] pb.wtf

Романтики «303» через торрент pb.wtf

Раздают: 2 [ 0 KB/s ]
Размер: 7.81 GB | Добавлен: 7 мес. назад | Торрент скачан:127 раз
Скачать  

27-01-2019 15:30 Романтики «303» Скачать торрент  

Романтики «303» | 303
Год выпуска: 2018
Страна: Германия
Жанр: комедия, мелодрама
Продолжительность: 02:24:09
Перевод: Профессиональный (многоголосый закадровый) | iTunes + субтитры на непереведенные места
Субтитры: русские (форс. вшитые)

Режиссер: Ханс Вайнгартнер

rating

В ролях: Мала Эмде, Антон Спикер, Арндт-Шверинг Сонрей, Томас Шмукерт, Йорг Бундшух, Стивен Ланж, Мартин Нойхаус, Ханна Шрёдер, София Чанетт

Описание: 24-летняя студентка Юле садится в старенький кемпер «Мерседес 303» и отправляется через всю Европу на встречу со своим бойфрендом Алексом. Ее случайным попутчиком становится Ян, студент-политолог, мечтающий найти в Испании родного отца, которого никогда не видел. Пока за окном сменяются пейзажи Германии, Бельгии, Франции и Португалии, герои коротают время за разговорами обо всем на свете. Они рассуждают, спорят, ссорятся и все больше привязываются друг к другу. Новая влюбленность не входит в их планы, но разве можно сопротивляться чувству, если ты молод, а мир вокруг удивительно прекрасен...

Качество: BDRip 720p
Формат: MKV

Видео: MPEG-4 AVC, 1280x694, 6920 kbps, 24,000 fps
Аудио#1: русский, AC3, 5.1 ch, 48 kHz, 384 kbps | iTunes + вставки оригинала ~24 мин
Аудио#2: немецкий, AC3, 5.1 ch, 48 kHz, 448 kbps | Оригинал
скриншот  скриншот  скриншот  скриншот  скриншот  

Общее
Уникальный идентификатор : 194937784285041714772694402210980374270 (0x92A7A6CF90E6C714A82397C0818B26FE)
Полное имя : G:Torrent2Romantiki303BDRip720p.mkv
Формат : Matroska
Версия формата : Version 4 / Version 2
Размер файла : 7,81 Гбайт
Продолжительность : 2 ч. 24 м.
Общий поток : 7754 Кбит/сек
Дата кодирования : UTC 2020-02-13 20:36:41
Программа кодирования : mkvmerge v9.5.0 ('Quiet Fire') 64bit
Библиотека кодирования : libebml v1.3.4 + libmatroska v1.4.5

Видео
Идентификатор : 1
Формат : AVC
Формат/Информация : Advanced Video Codec
Профиль формата : High@L4.1
Настройки формата : CABAC / 9 Ref Frames
Параметр CABAC формата : Да
Параметр RefFrames формата : 9 кадров
Идентификатор кодека : V_MPEG4/ISO/AVC
Продолжительность : 2 ч. 24 м.
Битрейт : 6920 Кбит/сек
Ширина : 1280 пикселей
Высота : 694 пикселя
Соотношение сторон : 1,85:1
Режим частоты кадров : Постоянный
Частота кадров : 24,000 кадра/сек
Цветовое пространство : YUV
Субдискретизация насыщенности : 4:2:0
Битовая глубина : 8 бит
Тип развёртки : Прогрессивная
Бит/(Пиксели*Кадры) : 0.325
Размер потока : 6,97 Гбайт (89%)
Заголовок : Sisendrovich(R)
Библиотека кодирования : x264 core 159 r2991 1771b55
Настройки программы : cabac=1 / ref=9 / deblock=1:-1:-1 / analyse=0x3:0x133 / me=tesa / subme=11 / psy=1 / psy_rd=1.00:0.00 / mixed_ref=1 / me_range=32 / chroma_me=1 / trellis=2 / 8x8dct=1 / cqm=0 / deadzone=21,11 / fast_pskip=0 / chroma_qp_offset=-2 / threads=22 / lookahead_threads=5 / sliced_threads=0 / nr=0 / decimate=0 / interlaced=0 / bluray_compat=0 / constrained_intra=0 / bframes=10 / b_pyramid=2 / b_adapt=2 / b_bias=0 / direct=3 / weightb=1 / open_gop=0 / weightp=2 / keyint=240 / keyint_min=23 / scenecut=40 / intra_refresh=0 / rc_lookahead=60 / rc=2pass / mbtree=0 / bitrate=6920 / ratetol=1.0 / qcomp=0.70 / qpmin=0 / qpmax=69 / qpstep=4 / cplxblur=20.0 / qblur=0.5 / vbv_maxrate=50000 / vbv_bufsize=62500 / nal_hrd=none / filler=0 / ip_ratio=1.40 / pb_ratio=1.30 / aq=3:0.80
Язык : German
Default : Да
Forced : Нет

Аудио #1
Идентификатор : 2
Формат : AC-3
Формат/Информация : Audio Coding 3
Параметр Endianness формата : Big
Идентификатор кодека : A_AC3
Продолжительность : 2 ч. 24 м.
Вид битрейта : Постоянный
Битрейт : 384 Кбит/сек
Каналы : 6 каналов
Расположение каналов : Front: L C R, Side: L R, LFE
Частота : 48,0 КГц
Частота кадров : 31,250 кадров/сек (1536 SPF)
Битовая глубина : 16 бит
Метод сжатия : С потерями
Размер потока : 396 Мбайт (5%)
Заголовок : rus
Язык : Russian
Default : Да
Forced : Нет

Аудио #2
Идентификатор : 3
Формат : AC-3
Формат/Информация : Audio Coding 3
Параметр Endianness формата : Big
Идентификатор кодека : A_AC3
Продолжительность : 2 ч. 24 м.
Вид битрейта : Постоянный
Битрейт : 448 Кбит/сек
Каналы : 6 каналов
Расположение каналов : Front: L C R, Side: L R, LFE
Частота : 48,0 КГц
Частота кадров : 31,250 кадров/сек (1536 SPF)
Битовая глубина : 16 бит
Метод сжатия : С потерями
Размер потока : 462 Мбайт (6%)
Заголовок : ger
Язык : German
Default : Нет
Forced : Нет

Меню
00:00:00.000 : en:Chapter 1
00:10:58.500 : en:Chapter 2
00:23:59.041 : en:Chapter 3
00:36:17.166 : en:Chapter 4
00:47:21.375 : en:Chapter 5
01:00:06.958 : en:Chapter 6
01:11:55.625 : en:Chapter 7
01:23:28.791 : en:Chapter 8
01:35:52.458 : en:Chapter 9
01:46:33.083 : en:Chapter 10
01:59:08.958 : en:Chapter 11
02:10:45.541 : en:Chapter 12
02:21:06.041 : en:Chapter 13

pb.wtf



Скачать Романтики «303» через торрент http://lostpix.com/thumbs/2019-12/23/ydkz8p5xaj8tmymrletmk96v2.png Скачать фильм Романтики «303» через торрент бесплантно в хорошем качестве Описание: 24-летняя студентка Юле садится в старенький кемпер «Мерседес 303» и отправляется через всю Европу на встречу со своим бойфрендом ... 10 10 3
Торрент: Зарегистрирован [2020-02-15 16:34] · скачан: 127 раз
Статус: √ проверено
Размер: 7.81 GB
Как cкачать? Как скачать Романтики «303» через торрент | qTorrent

% Раздел Тема Автор DL S | L
T Фильмы (мультфильмы) cо спонсором показа (Новинки AVI/MKV) [ 2.18 GB ] Романтики «303» / 303 [2018 HDRip] MVO ["Синема УС"] bober100 Скачать
1 | 0
T Фильмы (мультфильмы) cо спонсором показа (Новинки AVI/MKV) [ 1.46 GB ] Романтики «303» / 303 [2018 HDRip] MVO ["Синема УС"] bober100 Скачать
1 | 0

28-11-2019 20:33  

Отключить всю рекламу на сайте

    Дорогой пользователь! Огромная просьба, поблагодарите релизера, оцените раздачу и оставьте свои комментарий, если Вы скачали Романтики «303» через торрент бесплатно! Внесите свою лепту в развитие PiratBit!
    Комментировать посты могут только пользователи прошедшие не сложную регистрацию
    Показать сообщения:    

    Романтики «303» через торрент
    Скачать бесплатно Романтики «303»
    Романтики «303» скачать торрент
    Романтики «303» смотреть онлайн
    Cкачать фильм Романтики «303» бесплатно
    Романтики «303» скачать торрент в хорошем качестве
    Романтики «303» смотреть онлайн бесплатно в хорошем качестве


    Вы не можете начинать темы
    Вы не можете отвечать на сообщения
    Вы не можете редактировать свои сообщения
    Вы не можете удалять свои сообщения
    Вы не можете голосовать в опросах
    Вы не можете прикреплять файлы к сообщениям
    Вы можете скачивать файлы