Всегда рабочее зеркало без VPN и Proxy просто перед .vidak.icu напиши любое слово или цифру, Пример http://g1h4.vidak.icu

MVO

2 сезон

2 сезон

1

1 сезон

iTunes

2 сезон

13

1 сезон

Распродажа

pack

Рекомендуем

Пиратка

30

ВАЖНО

RePack

MK11

RePack

jed

RePack

fifa19

RePack

RDR2

RePack

NEED FOR SPEED™ PAYBACK

Кинопоиск HD

6 сезон

 Острые козырьки 6 сезон

Все сериалы

все сериалы на PB.wtf

RePack

FAR CRY 5

Anonymous, нам критически не хватает 5601 руб. на оплату серверов и переферии за Апрель, помоги нам пожалуйста, вся надежда только на тебя. В благодарность мы отключим тебе всю рекламу на сайте!

×
  
Magnet ссылка

Безумный Макс: Дорога ярости / Mad Max: Fury Road (Джордж Миллер) [2015, Фантастика, боевик, триллер, приключения, BDRip-HEVC 1080p] DUB [Лицензия] pb.wtf

Безумный Макс: Дорога ярости через торрент pb.wtf

Размер: 8.1 GB | Добавлен: 3 года 3 мес. назад | Торрент скачан:411 раз
Смотреть онлайн Безумный Макс: Дорога ярости | Скачать    Ребята, помогите собрать деньги на оплату серверов!!!

27-01-2019 19:06 Безумный Макс: Дорога ярости Скачать торрент  

Безумный Макс: Дорога ярости / Mad Max: Fury Road
Год выпуска: 2015
Страна: Австралия, США
Жанр: Фантастика, боевик, триллер, приключения, постапокалипсис
Продолжительность: 02:00:23
Перевод: Дублированный | Лицензия
Субтитры: Русские (форсированные, полные), английские

Режиссер: Джордж Миллер

rating

В ролях:

Том Харди (Max Rockatansky), Шарлиз Терон (Imperator Furiosa), Николас Холт (Nux), Хью Кияс-Бёрн (Immortan Joe), Джош Хелман (Slit), Нэйтан Джонс (Rictus Erectus), Зои Кравиц (Toast the Knowing), Роузи Хантингтон-Уайтли (The Splendid Angharad), Райли Кио (Capable), Эбби Ли (The Dag), Кортни Итон (Cheedo the Fragile), Джон Ховард (The People Eater)
Описание:

Преследуемый призраками беспокойного прошлого, Макс уверен, что лучший способ выжить — скитаться в одиночестве. Несмотря на это, он присоединяется к бунтарям, бегущим через всю пустыню на боевой фуре, под предводительством военачальника Фуриосы. Они пытаются сбежать из Цитадели, страдающей от тирании Несмертного Джо, у которого они забрали кое-что очень ценное. Разъярённый военачальник бросает все свои силы на погоню за мятежниками, ступая на дорогу войны — дорогу ярости.

Качество: BDRip-HEVC 1080p
Формат: MKV

Видео: HEVC/H.265, 1920x800, ~8540 Kbps, 8 бит
Аудио#1: AC3, 6 ch, 448 Kbps - Дублированный
Аудио#2: AC3, 6 ch, 640 Kbps - Английский
скриншот  скриншот  скриншот  скриншот  

Общее
Уникальный идентификатор : 191690198410080694365427161224473464041 (0x90363077094DF5E0819FA64D65E3CCE9)
Полное имя : F:РАЗДАЧИБезумный Макс. Дорога ярости (1080p) HEVC.mkv
Формат : Matroska
Версия формата : Version 4 / Version 2
Размер файла : 8,10 Гбайт
Продолжительность : 2 ч. 0 м.
Общий поток : 9631 Кбит/сек
Дата кодирования : UTC 2016-09-11 19:57:44
Программа кодирования : mkvmerge v9.2.0 ('Photograph') 64bit
Библиотека кодирования : libebml v1.3.3 + libmatroska v1.4.4

Видео
Идентификатор : 1
Формат : HEVC
Формат/Информация : High Efficiency Video Coding
Профиль формата : Main@L4@Main
Идентификатор кодека : V_MPEGH/ISO/HEVC
Продолжительность : 2 ч. 0 м.
Битрейт : 8540 Кбит/сек
Ширина : 1920 пикселей
Высота : 800 пикселей
Соотношение сторон : 2,40:1
Режим частоты кадров : Постоянный
Частота кадров : 23,976 (24000/1001) кадра/сек
Цветовое пространство : YUV
Субдискретизация насыщенности : 4:2:0
Битовая глубина : 8 бит
Бит/(Пиксели*Кадры) : 0.232
Размер потока : 7,18 Гбайт (89%)
Библиотека кодирования : x265 2.0+54-e5ca9b210223:[Windows][GCC 5.3.1][64 bit] 8bit
Настройки программы : wpp / ctu=64 / min-cu-size=8 / max-tu-size=32 / tu-intra-depth=1 / tu-inter-depth=1 / me=3 / subme=5 / merange=57 / no-rect / no-amp / max-merge=5 / temporal-mvp / no-early-skip / rskip / rdpenalty=0 / no-tskip / no-tskip-fast / strong-intra-smoothing / no-lossless / no-cu-lossless / no-constrained-intra / no-fast-intra / open-gop / no-temporal-layers / interlace=0 / keyint=250 / min-keyint=23 / scenecut=40 / rc-lookahead=60 / lookahead-slices=0 / bframes=8 / bframe-bias=0 / b-adapt=2 / ref=5 / limit-refs=3 / no-limit-modes / weightp / weightb / aq-mode=3 / qg-size=64 / aq-strength=1.00 / cbqpoffs=0 / crqpoffs=0 / rd=3 / psy-rd=2.00 / rdoq-level=2 / psy-rdoq=1.00 / log2-max-poc-lsb=8 / no-rd-refine / signhide / deblock=-3:-3 / no-sao / no-sao-non-deblock / b-pyramid / no-cutree / no-intra-refresh / rc=2 / pass / bitrate=8542 / qcomp=0.70 / qpmin=0 / qpmax=69 / qpstep=4 / cplxblur=20.0 / qblur=0.5 / ipratio=1.40 / pbratio=1.30
Default : Да
Forced : Нет

Аудио #1
Идентификатор : 2
Формат : AC-3
Формат/Информация : Audio Coding 3
Идентификатор кодека : A_AC3
Продолжительность : 2 ч. 0 м.
Вид битрейта : Постоянный
Битрейт : 448 Кбит/сек
Каналы : 6 каналов
Расположение каналов : Front: L C R, Side: L R, LFE
Частота : 48,0 КГц
Частота кадров : 31,250 кадров/сек (1536 SPF)
Битовая глубина : 16 бит
Метод сжатия : С потерями
Размер потока : 386 Мбайт (5%)
Заголовок : Дублированный
Язык : Russian
ServiceKind/Strin : Complete Main
Default : Да
Forced : Нет

Аудио #2
Идентификатор : 3
Формат : AC-3
Формат/Информация : Audio Coding 3
Идентификатор кодека : A_AC3
Продолжительность : 2 ч. 0 м.
Вид битрейта : Постоянный
Битрейт : 640 Кбит/сек
Каналы : 6 каналов
Расположение каналов : Front: L C R, Side: L R, LFE
Частота : 48,0 КГц
Частота кадров : 31,250 кадров/сек (1536 SPF)
Битовая глубина : 16 бит
Метод сжатия : С потерями
Размер потока : 551 Мбайт (7%)
Язык : English
ServiceKind/Strin : Complete Main
Default : Нет
Forced : Нет

Текст #1
Идентификатор : 4
Формат : UTF-8
Идентификатор кодека : S_TEXT/UTF8
Идентификатор кодека/Информация : UTF-8 Plain Text
Продолжительность : 1 ч. 53 м.
Битрейт : 0 бит/сек
ElementCount : 9
Размер потока : 405 байт (0%)
Заголовок : Forced
Язык : Russian
Default : Да
Forced : Нет

Текст #2
Идентификатор : 5
Формат : UTF-8
Идентификатор кодека : S_TEXT/UTF8
Идентификатор кодека/Информация : UTF-8 Plain Text
Продолжительность : 1 ч. 57 м.
Битрейт : 34 бит/сек
ElementCount : 876
Размер потока : 29,9 Кбайт (0%)
Язык : Russian
Default : Нет
Forced : Нет

Текст #3
Идентификатор : 6
Формат : UTF-8
Идентификатор кодека : S_TEXT/UTF8
Идентификатор кодека/Информация : UTF-8 Plain Text
Продолжительность : 1 ч. 50 м.
Битрейт : 24 бит/сек
ElementCount : 682
Размер потока : 19,6 Кбайт (0%)
Язык : English
Default : Нет
Forced : Нет

Текст #4
Идентификатор : 7
Формат : UTF-8
Идентификатор кодека : S_TEXT/UTF8
Идентификатор кодека/Информация : UTF-8 Plain Text
Продолжительность : 1 ч. 51 м.
Битрейт : 30 бит/сек
ElementCount : 1166
Размер потока : 24,6 Кбайт (0%)
Заголовок : SDH
Язык : English
Default : Нет
Forced : Нет

Меню
00:00:00.000 : :Chapter 01
00:10:42.475 : :Chapter 02
00:19:06.436 : :Chapter 03
00:30:12.310 : :Chapter 04
00:42:55.614 : :Chapter 05
00:49:33.345 : :Chapter 06
00:59:55.174 : :Chapter 07
01:13:02.544 : :Chapter 08
01:22:08.924 : :Chapter 09
01:30:02.730 : :Chapter 10
01:40:39.867 : :Chapter 11
01:49:12.546 : :Chapter 12
01:53:06.279 : :Chapter 13
02:00:23.132 : :Chapter 14

pb.wtf



Скачать Безумный Макс: Дорога ярости через торрент http://i72.fastpic.ru/big/2015/0827/6a/0e720a37d34d2c67cdd03498aa81236a.png Скачать, смотреть онлайн Безумный Макс: Дорога ярости бесплантно в хорошем качестве Описание: Преследуемый призраками беспокойного прошлого, Макс уверен, что лучший способ выжить — скитаться в одиночестве. Несмотря на это, ... 9.8 10 8
Info! Золотая раздача, скачанное не засчитывается.
Торрент: Зарегистрирован [2019-01-27 19:06] · скачан: 411 раз
Статус: √ проверено
Размер: 8.1 GB
Как cкачать? Как скачать Безумный Макс: Дорога ярости через торрент | UTorrent

% Раздел Тема Автор DL S | L
Ultra HD (UHD: 2K, 4K, 8K) — видео сверхвысокой чёткости [ 45.43 GB ] Безумный Макс: Дорога ярости / Mad Max: Fury Road [2015 UHD BDRip 2160p] [SDR] DUB + MVO + 6xAVO sheker187 Скачать
1 | 0
Ultra HD (UHD: 2K, 4K, 8K) — видео сверхвысокой чёткости [ 26.19 GB ] Безумный Макс: Дорога ярости / Mad Max: Fury Road [2015 UHD BDRip 2160p] sheker187 Скачать
2 | 0
Ultra HD (UHD: 2K, 4K, 8K) — видео сверхвысокой чёткости [ 53.08 GB ] Безумный Макс: Дорога ярости / Mad Max: Fury Road [2015 постапокалипсис UHD Blu-ray 2160p] DUB [] bober100 Скачать
1 | 0
Фильмы с авторской озвучкой [ 2.05 GB ] Безумный Макс: Дорога ярости / Mad Max: Fury Road [2015 BDRip] [AVO] killermax2013 Скачать
1 | 0
Ultra HD (UHD: 2K, 4K, 8K) — видео сверхвысокой чёткости [ 76.51 GB ] Безумный Макс: Дорога ярости / Mad Max: Fury Road [2015 UHD BDRemux 2160p] DUB + MVO + 6xAVO sheker187 Скачать
2 | 0
Ultra HD (UHD: 2K, 4K, 8K) — видео сверхвысокой чёткости [ 42.65 GB ] Безумный Макс: Дорога ярости / Mad Max: Fury Road [2015 постапокалипсис UHD BDRemux 2160p] DUB [] bober100 Скачать
1 | 0
Фильмы (Blu-ray, BD-Remux, HDDVD) [ 65.74 GB ] Безумный Макс: Дорога ярости / Mad Max: Fury Road [2015 BD Remux 1080p] MVO+6xAVO+2xDUB [] bober100 Скачать
1 | 0

28-11-2019 20:33  

Отключить всю рекламу на сайте

25-07-2021 16:55 Безумный Макс: Дорога ярости Скачать торрент  

Раздача мертва! Удалите.pb.wtf



    Дорогой пользователь! Огромная просьба, поблагодарите релизера, оцените раздачу и оставьте свои комментарий, если Вы скачали Безумный Макс: Дорога ярости через торрент бесплатно!
    Комментировать посты могут только пользователи прошедшие не сложную регистрацию
    Показать сообщения:    

    Безумный Макс: Дорога ярости через торрент
    Скачать бесплатно Безумный Макс: Дорога ярости
    Безумный Макс: Дорога ярости скачать торрент
    Безумный Макс: Дорога ярости смотреть онлайн
    Cкачать фильм Безумный Макс: Дорога ярости бесплатно
    Безумный Макс: Дорога ярости скачать торрент в хорошем качестве
    Безумный Макс: Дорога ярости смотреть онлайн бесплатно в хорошем качестве


    Вы не можете начинать темы
    Вы не можете отвечать на сообщения
    Вы не можете редактировать свои сообщения
    Вы не можете удалять свои сообщения
    Вы не можете голосовать в опросах
    Вы не можете прикреплять файлы к сообщениям
    Вы можете скачивать файлы