Лицензия

MVO

1

1 сезон

Лицензия

Лицензия

13

MVO

1 сезон

Ultimate

pack

Рекомендуем

30

Repack

ВАЖНО

ВАЖНО

Ghostwire

RePack

jed

RePack

fifa19

RePack

RDR2

RePack

NEED FOR SPEED™ PAYBACK

RePack

Кинопоиск HD

 Острые козырьки 6 сезон

6 сезон

FAR CRY 6

RePack

Лицензия

MVO

1

1 сезон

1 сезон

Лицензия

  

Законопослушный гражданин / Law Abiding Citizen (Ф. Гэри Грей) [2009, триллер, драма, криминал, BDRip-HEVC 1080p, (10 bit)] [Unrated Cut] DUB [Лицензия]

Законопослушный гражданин через торрент pb.wtf

Раздают: 2 [ 0 KB/s ]
Размер: 7.46 GB | Добавлен: 3 года 8 мес. назад | Торрент скачан:267 раз
Смотреть онлайн Законопослушный гражданин | Скачать   

27-01-2019 19:43 Законопослушный гражданин Скачать торрент  

Законопослушный гражданин / Law Abiding Citizen
Год выпуска: 2009
Страна: США
Жанр: триллер, драма, криминал
Продолжительность: 01:58:06
Перевод: Дублированный | Лицензия
Субтитры: Русские (форсированные, полные), английские (полные)

Режиссер: Ф. Гэри Грей

rating

В ролях:

Джейми Фокс (Nick Rice), Джерард Батлер (Clyde Shelton), Колм Мини (Detective Dunnigan), Брюс МакГилл (Jonas Cantrell), Лесли Бибб (Sarah Lowell), Майкл Ирби (Detective Garza), Грегори Итцин (Warden Iger), Реджина Холл (Kelly Rice), Эмиральд Янг (Denise Rice), Кристиан Столте (Clarence Darby), Энни Корли (Judge Laura Burch), Ричард Портноу (Bill Reynolds)
Описание:

Окружной прокурор пошёл на сделку с преступниками и освободил их из тюрьмы. Тогда человек, чья жена и ребёнок погибли от рук убийц решает отомстить прокурору, совершив правосудие самостоятельно. Его ловят и сажают в тюрьму, но он неожиданно ставит ультиматум: он будет убивать, не выходя из-за решетки, если его требования не будут выполнены. Смешное заявление, но вскоре люди правда начинают гибнуть…

Качество: BDRip-HEVC 1080p | Unrated Cut
Формат: MKV

Видео: HEVC/H.265, 1920x800, ~8203 Kbps, 10 bit
Аудио#1: AC3, 6 ch, 384 Kbps | Русский (Дублированный + вставки Киномании)
Аудио#2: AC3, 6 ch, 448 Kbps | Английский (Оригинал)
скриншот  скриншот  скриншот  скриншот  скриншот  

Общее
Уникальный идентификатор : 273361064737347186198726493056238344348 (0xCDA76D0FB1B2B2E27C8507783F77D89C)
Полное имя : Законопослушный гражданин (2009) [Unrated Cut] BDRip 1080p [HEVC] 10 bit.mkv
Формат : Matroska
Версия формата : Version 4 / Version 2
Размер файла : 7,46 Гбайт
Продолжительность : 1 ч. 58 м.
Общий поток : 9038 Кбит/сек
Название фильма : [email protected]
Дата кодирования : UTC 2019-01-27 14:17:22
Программа кодирования : mkvmerge v30.1.0 ('Forever And More') 64-bit
Библиотека кодирования : libebml v1.3.6 + libmatroska v1.4.9
Обложка : Yes
Attachments : cover.jpg

Видео
Идентификатор : 1
Формат : HEVC
Формат/Информация : High Efficiency Video Coding
Профиль формата : Main [email protected]@High
Идентификатор кодека : V_MPEGH/ISO/HEVC
Продолжительность : 1 ч. 58 м.
Битрейт : 8203 Кбит/сек
Ширина : 1920 пикселей
Высота : 800 пикселей
Соотношение сторон : 2,40:1
Режим частоты кадров : Постоянный
Частота кадров : 23,976 (24000/1001) кадра/сек
Цветовое пространство : YUV
Субдискретизация насыщенности : 4:2:0
Битовая глубина : 10 бит
Бит/(Пиксели*Кадры) : 0.223
Размер потока : 6,77 Гбайт (91%)
Библиотека кодирования : x265 2.9+9-f74003e88622:[Windows][GCC 8.2.0][64 bit] 10bit
Настройки программы : cpuid=1049583 / frame-threads=5 / numa-pools=4 / wpp / no-pmode / no-pme / no-psnr / no-ssim / log-level=3 / input-csp=1 / input-res=1920x800 / interlace=0 / total-frames=0 / level-idc=41 / high-tier=1 / uhd-bd=0 / ref=5 / allow-non-conformance / no-repeat-headers / annexb / no-aud / no-hrd / info / hash=0 / no-temporal-layers / open-gop / min-keyint=24 / keyint=240 / gop-lookahead=0 / bframes=8 / b-adapt=2 / b-pyramid / bframe-bias=0 / rc-lookahead=40 / lookahead-slices=5 / scenecut=40 / radl=0 / no-intra-refresh / ctu=64 / min-cu-size=8 / no-rect / no-amp / max-tu-size=32 / tu-inter-depth=1 / tu-intra-depth=1 / limit-tu=0 / rdoq-level=0 / dynamic-rd=0.00 / no-ssim-rd / signhide / no-tskip / nr-intra=0 / nr-inter=0 / no-constrained-intra / strong-intra-smoothing / max-merge=2 / limit-refs=3 / no-limit-modes / me=3 / subme=7 / merange=57 / temporal-mvp / weightp / no-weightb / no-analyze-src-pics / deblock=-3:-3 / no-sao / no-sao-non-deblock / rd=3 / no-early-skip / rskip / no-fast-intra / no-tskip-fast / no-cu-lossless / no-b-intra / no-splitrd-skip / rdpenalty=0 / psy-rd=2.00 / psy-rdoq=0.00 / no-rd-refine / no-lossless / cbqpoffs=0 / crqpoffs=0 / rc=crf / crf=18.0 / qcomp=0.70 / qpstep=4 / stats-write=0 / stats-read=0 / vbv-maxrate=50000 / vbv-bufsize=50000 / vbv-init=0.9 / crf-max=0.0 / crf-min=0.0 / ipratio=1.40 / pbratio=1.30 / aq-mode=1 / aq-strength=1.00 / cutree / zone-count=0 / no-strict-cbr / qg-size=32 / no-rc-grain / qpmax=69 / qpmin=0 / no-const-vbv / sar=1 / overscan=0 / videoformat=5 / range=0 / colorprim=1 / transfer=1 / colormatrix=1 / chromaloc=0 / display-window=0 / max-cll=0,0 / min-luma=0 / max-luma=1023 / log2-max-poc-lsb=8 / vui-timing-info / vui-hrd-info / slices=1 / no-opt-qp-pps / no-opt-ref-list-length-pps / no-multi-pass-opt-rps / scenecut-bias=0.05 / no-opt-cu-delta-qp / no-aq-motion / no-hdr / no-hdr-opt / no-dhdr10-opt / no-idr-recovery-sei / analysis-reuse-level=5 / scale-factor=0 / refine-intra=0 / refine-inter=0 / refine-mv=0 / no-limit-sao / ctu-info=0 / no-lowpass-dct / refine-mv-type=0 / copy-pic=1 / max-ausize-factor=1.0 / no-dynamic-refine / no-single-sei
Default : Да
Forced : Нет
Цветовой диапазон : Limited
Основные цвета : BT.709
Характеристики трансфера : BT.709
Коэффициенты матрицы : BT.709

Аудио #1
Идентификатор : 2
Формат : AC-3
Формат/Информация : Audio Coding 3
Идентификатор кодека : A_AC3
Продолжительность : 1 ч. 58 м.
Вид битрейта : Постоянный
Битрейт : 384 Кбит/сек
Каналы : 6 каналов
Расположение каналов : Front: L C R, Side: L R, LFE
Частота : 48,0 КГц
Частота кадров : 31,250 кадров/сек (1536 SPF)
Битовая глубина : 16 бит
Метод сжатия : С потерями
Размер потока : 324 Мбайт (4%)
Заголовок : Дубляж [R5 + вставки Киномании]
Язык : Russian
ServiceKind : Complete Main
Default : Да
Forced : Нет

Аудио #2
Идентификатор : 3
Формат : AC-3
Формат/Информация : Audio Coding 3
Идентификатор кодека : A_AC3
Продолжительность : 1 ч. 58 м.
Вид битрейта : Постоянный
Битрейт : 448 Кбит/сек
Каналы : 6 каналов
Расположение каналов : Front: L C R, Side: L R, LFE
Частота : 48,0 КГц
Частота кадров : 31,250 кадров/сек (1536 SPF)
Битовая глубина : 16 бит
Метод сжатия : С потерями
Размер потока : 378 Мбайт (5%)
Заголовок : Оригинал
Язык : English
ServiceKind : Complete Main
Default : Нет
Forced : Нет

Текст #1
Идентификатор : 4
Формат : UTF-8
Идентификатор кодека : S_TEXT/UTF8
Идентификатор кодека/Информация : UTF-8 Plain Text
Продолжительность : 10 с. 968 мс.
Битрейт : 266 бит/сек
ElementCount : 4
Размер потока : 365 байт (0%)
Заголовок : Rus Forced
Язык : Russian
Default : Да
Forced : Да

Текст #2
Идентификатор : 5
Формат : UTF-8
Идентификатор кодека : S_TEXT/UTF8
Идентификатор кодека/Информация : UTF-8 Plain Text
Продолжительность : 1 ч. 46 м.
Битрейт : 93 бит/сек
ElementCount : 1312
Размер потока : 73,1 Кбайт (0%)
Заголовок : Rus Full
Язык : Russian
Default : Нет
Forced : Нет

Текст #3
Идентификатор : 6
Формат : UTF-8
Идентификатор кодека : S_TEXT/UTF8
Идентификатор кодека/Информация : UTF-8 Plain Text
Продолжительность : 1 ч. 53 м.
Битрейт : 60 бит/сек
ElementCount : 1433
Размер потока : 50,4 Кбайт (0%)
Заголовок : Eng Full
Язык : English
Default : Нет
Forced : Нет

Меню
00:00:00.000 : :Глава 1
00:05:00.000 : :Глава 2
00:10:00.000 : :Глава 3
00:15:00.000 : :Глава 4
00:20:00.000 : :Глава 5
00:25:00.000 : :Глава 6
00:30:00.000 : :Глава 7
00:35:00.000 : :Глава 8
00:40:00.000 : :Глава 9
00:45:00.000 : :Глава 10
00:50:00.000 : :Глава 11
00:55:00.000 : :Глава 12
01:00:00.000 : :Глава 13
01:05:00.000 : :Глава 14
01:10:00.000 : :Глава 15
01:15:00.000 : :Глава 16
01:20:00.000 : :Глава 17
01:25:00.000 : :Глава 18
01:30:00.000 : :Глава 19
01:35:00.000 : :Глава 20
01:40:00.000 : :Глава 21
01:45:00.000 : :Глава 22
01:50:00.000 : :Глава 23
01:55:00.000 : :Глава 24




Скачать Законопослушный гражданин через торрент https://c.radikal.ru/c18/1901/fe/575bb7cfcfe9.jpg Скачать, смотреть онлайн Законопослушный гражданин бесплантно в хорошем качестве Описание: Окружной прокурор пошёл на сделку с преступниками и освободил их из тюрьмы. Тогда человек, чья жена и ребёнок погибли от рук ... 10 10 11
Info! Золотая раздача, скачанное не засчитывается.
Торрент: Зарегистрирован [2019-01-27 19:43] · скачан: 267 раз
Статус: √ проверено
Размер: 7.46 GB
Как cкачать? Как скачать Законопослушный гражданин через торрент | UTorrent

% Раздел Тема Автор DL S | L
Фильмы (HD 720p, 1080p) (48-60 fps) [ 4.83 GB ] Законопослушный гражданин / Law Abiding Citizen | Дубляж | DLRip 720p / 60 FPS slaventi-69 Скачать
2 | 1
Фильмы [HD 720p, 1080p] (Хороший звук DUB, MVO) [ 10.58 GB ] Законопослушный гражданин / Law Abiding Citizen | DUB +MVO | HDRip 1080p, (SDR bober100 Скачать
1 | 0
Ultra HD (UHD: 2K, 4K, 8K) [ 55.45 GB ] Законопослушный гражданин / Law Abiding Citizen | Лицензия | 2160p bober100 Скачать
1 | 0
Фильмы [HD 720p, 1080p] (Хороший звук DUB, MVO) [ 16.86 GB ] Законопослушный гражданин / Law Abiding Citizen | DUB | 1080p by msltel msltel Скачать
1 | 0
Фильмы [HD 720p, 1080p] (Хороший звук DUB, MVO) [ 5.7 GB ] Законопослушный гражданин / Law Abiding Citizen | DUB | 720p by msltel msltel Скачать
1 | 0
Ultra HD (UHD: 2K, 4K, 8K) [ 73.51 GB ] Законопослушный гражданин / Law Abiding Citizen | DUB | 2160p sheker187 Скачать
1 | 0
Ultra HD (UHD: 2K, 4K, 8K) [ 54.22 GB ] Законопослушный гражданин / Law Abiding Citizen | Лицензия | 2160p bober100 Скачать
1 | 0

28-11-2019 20:33  

Отключить вcю реклaмy на сайте

05-03-2022 20:17 Законопослушный гражданин Скачать торрент  

Умных и сильных убивают, надо быть еще и хитрым)



    Дорогой пользователь! Огромная просьба, поблагодарите релизера, оцените раздачу и оставьте свои комментарий, если Вы скачали Законопослушный гражданин через торрент бесплатно!!
    Комментировать посты могут только пользователи прошедшие не сложную регистрацию
    Показать сообщения:    


    Законопослушный гражданин через торрент
    Скачать бесплатно Законопослушный гражданин
    Законопослушный гражданин скачать торрент
    Законопослушный гражданин смотреть онлайн
    Cкачать фильм Законопослушный гражданин бесплатно
    Законопослушный гражданин скачать торрент в хорошем качестве
    Законопослушный гражданин смотреть онлайн бесплатно в хорошем качестве
    Вы не можете начинать темы
    Вы не можете отвечать на сообщения
    Вы не можете редактировать свои сообщения
    Вы не можете удалять свои сообщения
    Вы не можете голосовать в опросах
    Вы не можете прикреплять файлы к сообщениям
    Вы можете скачивать файлы