Ссылка на приватное зеркало всего за 1$. Внимание количество ограничено!!!

OK

1+1

iTunes

мы

OK

1

WEB-DLRip

Джокер

Пифагор

Ведьмак / The Witcher сериал

Лицензия

ПШазам

ОК

Оно 2

iTunes

30
pack

Вам бонус

ВАЖНО

!!Акция!!

Alien_RageХит недели

RePack

Resident Evil 21

ИГРА 18+

pack

RePack

jed

!!Акция!!

Alien_Rage

RePack

fifa19

RePack

Assassins Creed: Odyssey

RePack

NEED FOR SPEED™ PAYBACK

4 сезон

9 сезон

Бесстыжие 9 сезон

Все сериалы

все сериалы на PB.wtf

RePack

FAR CRY 5
  

Короткое замыкание / Short Circuit (Джон Бэдэм) [1986 г., фантастика, комедия, семейный, BDRip 720p] DUB, 2xMVO, 4xAVO pb.wtf

Короткое замыкание через торрент pb.wtf

Размер: 6.29 GB | Добавлен: 11 мес. назад | Торрент скачан:104 раза
Скачать  

27-01-2019 21:22 Короткое замыкание Скачать торрент  

Короткое замыкание / Short Circuit
Год выпуска: 1986

Страна: США

Жанр: Фантастика, комедия, семейный

Продолжительность: 01:38:34

Перевод: Дублированный, профессиональный (многоголосый), авторский (одноголосый)

Субтитры: Русские, английские

Режиссер: Джон Бэдэм

rating

В ролях: Элли Шиди, Стив Гуттенберг, Фишер Стивенс, Остин Пендлтон, Брайан МакНамара, Тим Блэйни, Марвин Дж. МакИнтайр, Джон Гарбер, Пенни Сантон, Вернон Уиддл, Барбара Тарбак, Том Лоуренс, Билли Рэй Шарки, Роберт Крантц, Джен Спэк, Маргарит Хэппи, Марджори Кард Хьюз, Херб Смит, Джек Томпсон, Лиза МакЛин

Описание: С конвейера военного завода сходит экспериментальный робот Номер 5. Когда в андроида попадает молния, в его внутренних схемах что-то "замыкает", и... Номер 5 оживает! Вся штука в том, что его создатель и те, кто замыслил использовать робота в военных целях, не подозревали даже, какой могучий заряд человеколюбия и добра заложен в этой, казалось бы, безмозглой и бессердечной железяке.
Качество: BDRip 720p
Формат: MKV
Видео кодек: MPEG-4 AVC
Аудио кодек: AC3
Видео: MPEG-4 AVC, 6800 Кбит/с, 1280x532
Аудио 1 : Русский; AC3; 48.0 KHz; 6ch; 448 Kbps || MVO (Инис)
Аудио 2 : Русский; AC3; 48.0 KHz; 2ch; 192 Kbps || DUB (Варус Видео)
Аудио 3 : Русский; AC3; 48.0 KHz; 2ch; 192 Kbps || MVO (CTC)
Аудио 4 : Русский; AC3; 48.0 KHz; 6ch; 448 Kbps || AVO - Юрий Живов
Аудио 5 : Русский; AC3; 48.0 KHz; 2ch; 192 Kbps || AVO - Сергей Кузнецов (ранний)
Аудио 6 : Русский; AC3; 48.0 KHz; 2ch; 192 Kbps || AVO - Сергей Кузнецов (поздний)
Аудио 7 : Русский; AC3; 48.0 KHz; 2ch; 192 Kbps || AVO - Андрей Дольский
Аудио 8 : Английский; AC3; 48.0 KHz; 6ch; 448 Kbps
Видео
Идентификатор : 1
Формат : AVC
Формат/Информация : Advanced Video Codec
Профиль формата : High@L4.1
Настройки формата : CABAC / 9 Ref Frames
Параметр CABAC формата : Да
Параметр RefFrames формата : 9 кадров
Идентификатор кодека : V_MPEG4/ISO/AVC
Продолжительность : 1 ч. 38 м.
Битрейт : 6800 Кбит/сек
Ширина : 1280 пикселей
Высота : 532 пикселя
Соотношение сторон : 2,40:1
Режим частоты кадров : Постоянный
Частота кадров : 23,976 (24000/1001) кадра/сек
Цветовое пространство : YUV
Субдискретизация насыщенности : 4:2:0
Битовая глубина : 8 бит
Тип развёртки : Прогрессивная
Бит/(Пиксели*Кадры) : 0.416
Размер потока : 4,68 Гбайт (74%)
Заголовок : Short.Circuit.1986.BDRip.720p.x264-MM
Библиотека кодирования : x264 core 157 r2935 545de2f
Настройки программы : cabac=1 / ref=9 / deblock=1:-3:-3 / analyse=0x3:0x133 / me=umh / subme=11 / psy=1 / psy_rd=1.01:0.00 / mixed_ref=1 / me_range=48 / chroma_me=1 / trellis=2 / 8x8dct=1 / cqm=0 / deadzone=21,11 / fast_pskip=0 / chroma_qp_offset=-2 / threads=12 / lookahead_threads=3 / sliced_threads=0 / nr=0 / decimate=0 / interlaced=0 / bluray_compat=0 / constrained_intra=0 / bframes=12 / b_pyramid=2 / b_adapt=2 / b_bias=0 / direct=3 / weightb=1 / open_gop=1 / weightp=2 / keyint=250 / keyint_min=23 / scenecut=40 / intra_refresh=0 / rc_lookahead=60 / rc=2pass / mbtree=0 / bitrate=6800 / ratetol=1.0 / qcomp=0.60 / qpmin=0 / qpmax=69 / qpstep=4 / cplxblur=20.0 / qblur=0.5 / vbv_maxrate=50000 / vbv_bufsize=62500 / nal_hrd=none / filler=0 / ip_ratio=1.40 / pb_ratio=1.30 / aq=1:1.10
Язык : English
Default : Да
Forced : Нет

Аудио #1
Идентификатор : 2
Формат : AC-3
Формат/Информация : Audio Coding 3
Коммерческое название : Dolby Digital
Идентификатор кодека : A_AC3
Продолжительность : 1 ч. 38 м.
Вид битрейта : Постоянный
Битрейт : 448 Кбит/сек
Каналы : 6 каналов
Channel layout : L R C LFE Ls Rs
Частота : 48,0 КГц
Частота кадров : 31,250 кадров/сек (1536 SPF)
Битовая глубина : 16 бит
Метод сжатия : С потерями
Размер потока : 316 Мбайт (5%)
Заголовок : MVO Инис
Язык : Russian
ServiceKind/String : Complete Main
Default : Да
Forced : Нет

Аудио #2
Идентификатор : 3
Формат : AC-3
Формат/Информация : Audio Coding 3
Коммерческое название : Dolby Digital
Идентификатор кодека : A_AC3
Продолжительность : 1 ч. 38 м.
Вид битрейта : Постоянный
Битрейт : 192 Кбит/сек
Каналы : 2 канала
Channel layout : L R
Частота : 48,0 КГц
Частота кадров : 31,250 кадров/сек (1536 SPF)
Битовая глубина : 16 бит
Метод сжатия : С потерями
Размер потока : 135 Мбайт (2%)
Заголовок : DUB Варус Видео
Язык : Russian
ServiceKind/String : Complete Main
Default : Нет
Forced : Нет

Аудио #3
Идентификатор : 4
Формат : AC-3
Формат/Информация : Audio Coding 3
Коммерческое название : Dolby Digital
Идентификатор кодека : A_AC3
Продолжительность : 1 ч. 38 м.
Вид битрейта : Постоянный
Битрейт : 192 Кбит/сек
Каналы : 2 канала
Channel layout : L R
Частота : 48,0 КГц
Частота кадров : 31,250 кадров/сек (1536 SPF)
Битовая глубина : 16 бит
Метод сжатия : С потерями
Размер потока : 135 Мбайт (2%)
Заголовок : MVO CTC
Язык : Russian
ServiceKind/String : Complete Main
Default : Нет
Forced : Нет

Аудио #4
Идентификатор : 5
Формат : AC-3
Формат/Информация : Audio Coding 3
Коммерческое название : Dolby Digital
Идентификатор кодека : A_AC3
Продолжительность : 1 ч. 38 м.
Вид битрейта : Постоянный
Битрейт : 448 Кбит/сек
Каналы : 6 каналов
Channel layout : L R C LFE Ls Rs
Частота : 48,0 КГц
Частота кадров : 31,250 кадров/сек (1536 SPF)
Битовая глубина : 16 бит
Метод сжатия : С потерями
Размер потока : 316 Мбайт (5%)
Заголовок : AVO Юрий Живов
Язык : Russian
ServiceKind/String : Complete Main
Default : Нет
Forced : Нет

Аудио #5
Идентификатор : 6
Формат : AC-3
Формат/Информация : Audio Coding 3
Коммерческое название : Dolby Digital
Идентификатор кодека : A_AC3
Продолжительность : 1 ч. 38 м.
Вид битрейта : Постоянный
Битрейт : 192 Кбит/сек
Каналы : 2 канала
Channel layout : L R
Частота : 48,0 КГц
Частота кадров : 31,250 кадров/сек (1536 SPF)
Битовая глубина : 16 бит
Метод сжатия : С потерями
Размер потока : 135 Мбайт (2%)
Заголовок : AVO Сергей Кузнецов (ранний)
Язык : Russian
ServiceKind/String : Complete Main
Default : Нет
Forced : Нет

Аудио #6
Идентификатор : 7
Формат : AC-3
Формат/Информация : Audio Coding 3
Коммерческое название : Dolby Digital
Идентификатор кодека : A_AC3
Продолжительность : 1 ч. 38 м.
Вид битрейта : Постоянный
Битрейт : 192 Кбит/сек
Каналы : 2 канала
Channel layout : L R
Частота : 48,0 КГц
Частота кадров : 31,250 кадров/сек (1536 SPF)
Битовая глубина : 16 бит
Метод сжатия : С потерями
Размер потока : 135 Мбайт (2%)
Заголовок : AVO Сергей Кузнецов (поздний)
Язык : Russian
ServiceKind/String : Complete Main
Default : Нет
Forced : Нет

Аудио #7
Идентификатор : 8
Формат : AC-3
Формат/Информация : Audio Coding 3
Коммерческое название : Dolby Digital
Идентификатор кодека : A_AC3
Продолжительность : 1 ч. 38 м.
Вид битрейта : Постоянный
Битрейт : 192 Кбит/сек
Каналы : 2 канала
Channel layout : L R
Частота : 48,0 КГц
Частота кадров : 31,250 кадров/сек (1536 SPF)
Битовая глубина : 16 бит
Метод сжатия : С потерями
Размер потока : 135 Мбайт (2%)
Заголовок : AVO Андрей Дольский
Язык : Russian
ServiceKind/String : Complete Main
Default : Нет
Forced : Нет

Аудио #8
Идентификатор : 9
Формат : AC-3
Формат/Информация : Audio Coding 3
Коммерческое название : Dolby Digital
Идентификатор кодека : A_AC3
Продолжительность : 1 ч. 38 м.
Вид битрейта : Постоянный
Битрейт : 448 Кбит/сек
Каналы : 6 каналов
Channel layout : L R C LFE Ls Rs
Частота : 48,0 КГц
Частота кадров : 31,250 кадров/сек (1536 SPF)
Битовая глубина : 16 бит
Метод сжатия : С потерями
Размер потока : 316 Мбайт (5%)
Заголовок : Original
Язык : English
ServiceKind/String : Complete Main
Default : Нет
Forced : Нет

Текст #1
Идентификатор : 10
Формат : PGS
Режим смешивания : zlib
Идентификатор кодека : S_HDMV/PGS
Идентификатор кодека/Информация : Picture based subtitle format used on BDs/HD-DVDs
Продолжительность : 1 ч. 34 м.
Битрейт : 34,0 Кбит/сек
ElementCount : 2455
Размер потока : 23,0 Мбайт (0%)
Язык : Russian
Default : Да
Forced : Нет

Текст #2
Идентификатор : 11
Формат : PGS
Режим смешивания : zlib
Идентификатор кодека : S_HDMV/PGS
Идентификатор кодека/Информация : Picture based subtitle format used on BDs/HD-DVDs
Продолжительность : 1 ч. 30 м.
Битрейт : 38,0 Кбит/сек
ElementCount : 2788
Размер потока : 24,6 Мбайт (0%)
Язык : English
Default : Нет
Forced : Нет

Меню
00:00:00.000 : en:Chapter 1
00:05:00.000 : en:Chapter 2
00:10:00.000 : en:Chapter 3
00:15:00.000 : en:Chapter 4
00:20:00.000 : en:Chapter 5
00:25:00.000 : en:Chapter 6
00:30:00.000 : en:Chapter 7
00:35:00.000 : en:Chapter 8
00:40:00.000 : en:Chapter 9
00:45:00.000 : en:Chapter 10
00:50:00.000 : en:Chapter 11
00:55:00.000 : en:Chapter 12
01:00:00.000 : en:Chapter 13
01:05:00.000 : en:Chapter 14
01:10:00.000 : en:Chapter 15
01:15:00.000 : en:Chapter 16
01:20:00.000 : en:Chapter 17
01:25:00.000 : en:Chapter 18
01:30:00.000 : en:Chapter 19
01:35:00.000 : en:Chapter 20

скриншот   скриншот   скриншот   скриншот   скриншот  

pb.wtf



Скачать Короткое замыкание через торрент http://pic1.kartinco.top/images/12/gutgq.jpg Скачать фильм Короткое замыкание через торрент бесплантно в хорошем качестве Описание: С конвейера военного завода сходит экспериментальный робот Номер Когда в андроида попадает молния, в его внутренних схемах ... 10 10 17
Info! Золотая раздача, скачанное не засчитывается.
Торрент: Зарегистрирован [2019-01-27 21:22] · скачан: 104 раз
Статус: √ проверено
Размер: 6.29 GB
Как cкачать? Как скачать Короткое замыкание через торрент | qTorrent

% Раздел Тема Автор DL S | L
Фильмы [HD 720p, 1080p] (Хороший звук DUB, MVO) [ 7.21 GB ] Короткое замыкание 2 / Short Circuit 2 [1988 BDRip 720p] DUB 2xMVO 5xAVO Леонид Ильич Скачать
1 | 0

28-11-2019 20:33  

Отключить всю рекламу на сайте

28-01-2019 03:32 Короткое замыкание Скачать торрент  

Ходили в детстве всем классом в кино, было в то время "Бомба" . Спасибо ща пересмотрим...pb.wtf



28-01-2019 05:58 Короткое замыкание Скачать торрент  

присоединюсь.... пересмотрю с удовольствием. Еще бы сразу вторую часть выложили бы . И "полет навигатора" до кучи, чтоб уж совсем обнастольгироваться))))pb.wtf



28-01-2019 07:14 Короткое замыкание Скачать торрент  

ЛеонидИльич, Решил вспомнить молодость?! pb.wtf



28-01-2019 15:42 Короткое замыкание Скачать торрент  

супер pb.wtf



28-01-2019 16:09 Короткое замыкание Скачать торрент  

ностальгия! в кино гоняли!pb.wtf



    Дорогой пользователь! Огромная просьба, поблагодарите релизера, оцените раздачу и оставьте свои комментарий, если Вы скачали Короткое замыкание через торрент бесплатно! Внесите свою лепту в развитие PiratBit!
    Комментировать посты могут только пользователи прошедшие не сложную регистрацию
    Показать сообщения:    

    Короткое замыкание через торрент
    Скачать бесплатно Короткое замыкание
    Короткое замыкание скачать торрент
    Короткое замыкание смотреть онлайн
    Cкачать фильм Короткое замыкание бесплатно
    Короткое замыкание скачать торрент в хорошем качестве
    Короткое замыкание смотреть онлайн бесплатно в хорошем качестве


    Вы не можете начинать темы
    Вы не можете отвечать на сообщения
    Вы не можете редактировать свои сообщения
    Вы не можете удалять свои сообщения
    Вы не можете голосовать в опросах
    Вы не можете прикреплять файлы к сообщениям
    Вы можете скачивать файлы