Ссылка на приватное зеркало всего за 1$. Внимание количество ограничено!!!

iTunes

1+1

iTunes

мы

WEB-DL

1

iTunes

Чернобыль

iTunes

Ральф против интернета

Лицензия

ПШазам

Лицензия

Оно 2

Лицензия

30
pack

Вам бонус

ВАЖНО

!!Акция!!

Alien_RageХит недели

RePack

Resident Evil 21

ИГРА 18+

pack

RePack

jed

!!Акция!!

Alien_Rage

RePack

fifa19

RePack

Assassins Creed: Odyssey

RePack

NEED FOR SPEED™ PAYBACK

3 сезон

9 сезон

Бесстыжие 9 сезон

Все сериалы

все сериалы на PB.wtf

RePack

FAR CRY 5
Ребята, катастрофически не хватает 1900р. для оплаты серверов за Октябрь (всвязи с блокировками трафик упал в 3 раза), 1-2р., выручайте.
  

Плавая с мужиками / Swimming with Men (Оливер Паркер) [2018, драма, мелодрама, комедия, спорт, BDRip-AVC] MVO [HDRezka Studio] pb.wtf

Плавая с мужиками через торрент pb.wtf

Размер: 1.67 GB | Добавлен: 10 мес. назад | Торрент скачан:223 раза
Скачать  

28-01-2019 04:29 Плавая с мужиками Скачать торрент  

Плавая с мужиками / Swimming with Men Год выпуска: 2018
Страна: Великобритания
Жанр: драма, мелодрама, комедия, спорт
Продолжительность: 01:37:03
Перевод: Профессиональный (многоголосый) | HDRezka Studio
Субтитры: Английские (полные, SDH)

Режиссер: Оливер Паркер

rating

В ролях:

Шарлотта Райли, Руперт Грейвз, Джим Картер, Натаниель Паркер, Роб Брайдон, Дэниэл Мейс, Джейн Хоррокс, Томас Тургус, Адиль Ахтар, Эндрю Нотт

Описание:

Мужчина в состоянии кризиса среднего возраста обнаруживает в своей жизни новый смысл. Теперь он — часть любительской команды по синхронному плаванию, состоящей из таких же неудачников, как и он.

Качество: BDRip-AVC
Формат: MKV

Видео: 1024x428 (2.40:1), 24,000 fps, x264 ~1 826 Кбит/сек, 0.174 bit/pixel
Аудио#1: 48 kHz, AC3 Dolby Digital, 2 (L,R) ch, ~192.00 kbps avg | RUS (HDRezka Studio)
Аудио#2: 48 kHz, AC3 Dolby Digital, 3/2 (L,C,R,l,r) + LFE ch, ~448.00 kbps avg | ENG
скриншот  скриншот  скриншот  скриншот  

Общее
Уникальный идентификатор : 223445901976928987256587590017847830150 (0xA81A1D8805EBE5AE328325EC2642A686)
Полное имя : F:\OlLanDGroup\Swimming.with.Men.2018.BDRip(AVC).OlLanDGroup.mkv
Формат : Matroska
Версия формата : Version 4 / Version 2
Размер файла : 1,67 Гбайт
Продолжительность : 1 ч. 37 м.
Общий поток : 2465 Кбит/сек
Название фильма : Swimming.with.Men.2018 #TorpedoUK#
Дата кодирования : UTC 2019-01-28 03:07:23
Программа кодирования : mkvmerge v29.0.0 ('Like It Or Not') 64-bit
Библиотека кодирования : libebml v1.3.6 + libmatroska v1.4.9

Видео
Идентификатор : 1
Формат : AVC
Формат/Информация : Advanced Video Codec
Профиль формата : High@L4.1
Параметр CABAC формата : Да
Параметр ReFrames формата : 10 кадров
Идентификатор кодека : V_MPEG4/ISO/AVC
Продолжительность : 1 ч. 37 м.
Битрейт : 1826 Кбит/сек
Ширина : 1024 пикселя
Высота : 428 пикселей
Соотношение сторон : 2,40:1
Режим частоты кадров : Постоянный
Частота кадров : 24,000 кадра/сек
Цветовое пространство : YUV
Субдискретизация насыщенности : 4:2:0
Битовая глубина : 8 бит
Тип развёртки : Прогрессивная
Бит/(Пиксели*Кадры) : 0.174
Размер потока : 1,24 Гбайт (74%)
Библиотека кодирования : x264 core 146 r2538 121396c
Настройки программы : cabac=1 / ref=10 / deblock=1:-3:-3 / analyse=0x3:0x113 / me=umh / subme=11 / psy=1 / psy_rd=1.00:0.03 / mixed_ref=1 / me_range=48 / chroma_me=1 / trellis=2 / 8x8dct=1 / cqm=0 / deadzone=21,11 / fast_pskip=1 / chroma_qp_offset=-3 / threads=6 / lookahead_threads=1 / sliced_threads=0 / nr=0 / decimate=1 / interlaced=0 / bluray_compat=0 / constrained_intra=0 / bframes=11 / b_pyramid=2 / b_adapt=2 / b_bias=0 / direct=3 / weightb=1 / open_gop=0 / weightp=2 / keyint=240 / keyint_min=24 / scenecut=40 / intra_refresh=0 / rc_lookahead=40 / rc=2pass / mbtree=0 / bitrate=1826 / ratetol=1.0 / qcomp=0.60 / qpmin=0 / qpmax=69 / qpstep=4 / cplxblur=20.0 / qblur=0.5 / vbv_maxrate=50000 / vbv_bufsize=62500 / nal_hrd=none / filler=0 / ip_ratio=1.40 / pb_ratio=1.30 / aq=1:1.00
Язык : English
Default : Да
Forced : Нет

Аудио #1
Идентификатор : 2
Формат : AC-3
Формат/Информация : Audio Coding 3
Расширение режима : CM (complete main)
Параметр Endianness формата : Big
Идентификатор кодека : A_AC3
Продолжительность : 1 ч. 37 м.
Вид битрейта : Постоянный
Битрейт : 192 Кбит/сек
Каналы : 2 канала
Расположение каналов : Front: L R
Частота : 48,0 КГц
Частота кадров : 31,250 кадров/сек (1536 spf)
Битовая глубина : 16 бит
Метод сжатия : С потерями
Размер потока : 133 Мбайт (8%)
Заголовок : MVO [HDRezka Studio]
Язык : Russian
Default : Да
Forced : Нет

Аудио #2
Идентификатор : 3
Формат : AC-3
Формат/Информация : Audio Coding 3
Расширение режима : CM (complete main)
Параметр Endianness формата : Big
Идентификатор кодека : A_AC3
Продолжительность : 1 ч. 37 м.
Вид битрейта : Постоянный
Битрейт : 448 Кбит/сек
Каналы : 6 каналов
Расположение каналов : Front: L C R, Side: L R, LFE
Частота : 48,0 КГц
Частота кадров : 31,250 кадров/сек (1536 spf)
Битовая глубина : 16 бит
Метод сжатия : С потерями
Размер потока : 311 Мбайт (18%)
Заголовок : [Original]
Язык : English
Default : Нет
Forced : Нет

Текст #1
Идентификатор : 4
Формат : UTF-8
Идентификатор кодека : S_TEXT/UTF8
Идентификатор кодека/Информация : UTF-8 Plain Text
Продолжительность : 1 ч. 36 м.
Битрейт : 60 бит/сек
Count of elements : 1447
Размер потока : 42,6 Кбайт (0%)
Заголовок : Full
Язык : English
Default : Нет
Forced : Нет

Текст #2
Идентификатор : 5
Формат : UTF-8
Идентификатор кодека : S_TEXT/UTF8
Идентификатор кодека/Информация : UTF-8 Plain Text
Продолжительность : 1 ч. 36 м.
Битрейт : 64 бит/сек
Count of elements : 1666
Размер потока : 45,9 Кбайт (0%)
Заголовок : SDH
Язык : English
Default : Нет
Forced : Нет

Меню
00:00:00.000 : en:Chapter 01
00:12:55.916 : en:Chapter 02
00:24:28.125 : en:Chapter 03
00:40:03.958 : en:Chapter 04
00:59:51.666 : en:Chapter 05
01:12:28.875 : en:Chapter 06
01:17:27.208 : en:Chapter 07
01:27:26.416 : en:Chapter 08
01:37:01.208 : en:Chapter 09

pb.wtf



Скачать Плавая с мужиками через торрент https://i110.fastpic.ru/big/2019/0128/18/d83e39c68bd751eb685eb507abf97e18.jpg Скачать фильм Плавая с мужиками через торрент бесплантно в хорошем качестве Описание: Мужчина в состоянии кризиса среднего возраста обнаруживает в своей жизни новый смысл. Теперь он — часть любительской команды по ... 9.6 10 14
Торрент: Зарегистрирован [2019-01-28 04:29] · скачан: 223 раз
Статус: T временная
Размер: 1.67 GB
Как cкачать? Как скачать Плавая с мужиками через торрент | qTorrent

% Раздел Тема Автор DL S | L
T Фильмы [HD 720p, 1080p] (Хороший звук DUB, MVO) [ 5.71 GB ] Плавая с мужиками / Swimming with Men [2018 BDRip 720p] MVO [HDRezka Studio] bober100 Скачать
1 | 0

28-11-2019 20:33  

Отключить всю рекламу на сайте

28-01-2019 05:46 Плавая с мужиками Скачать торрент  

Мужчина в состоянии кризиса среднего возраста обнаруживает в своей жизни новый смысл. Теперь он — часть любительской команды по синхронному плаванию, состоящей из таких же неудачников, как и он. pb.wtf



    Дорогой пользователь! Огромная просьба, поблагодарите релизера, оцените раздачу и оставьте свои комментарий, если Вы скачали Плавая с мужиками через торрент бесплатно! Внесите свою лепту в развитие PiratBit!
    Комментировать посты могут только пользователи прошедшие не сложную регистрацию
    Показать сообщения:    

    Плавая с мужиками через торрент
    Скачать бесплатно Плавая с мужиками
    Плавая с мужиками скачать торрент
    Плавая с мужиками смотреть онлайн
    Cкачать фильм Плавая с мужиками бесплатно
    Плавая с мужиками скачать торрент в хорошем качестве
    Плавая с мужиками смотреть онлайн бесплатно в хорошем качестве


    Вы не можете начинать темы
    Вы не можете отвечать на сообщения
    Вы не можете редактировать свои сообщения
    Вы не можете удалять свои сообщения
    Вы не можете голосовать в опросах
    Вы не можете прикреплять файлы к сообщениям
    Вы можете скачивать файлы