Ссылка на приватное зеркало всего за 1$. Внимание количество ограничено!!!

OK

1+1

iTunes

мы

OK

1

WEB-DLRip

Джокер

Пифагор

Ведьмак / The Witcher сериал

Лицензия

ПШазам

ОК

Оно 2

iTunes

30
pack

Вам бонус

ВАЖНО

!!Акция!!

Alien_RageХит недели

RePack

Resident Evil 21

ИГРА 18+

pack

RePack

jed

!!Акция!!

Alien_Rage

RePack

fifa19

RePack

Assassins Creed: Odyssey

RePack

NEED FOR SPEED™ PAYBACK

4 сезон

9 сезон

Бесстыжие 9 сезон

Все сериалы

все сериалы на PB.wtf

RePack

FAR CRY 5
  

Робин Гуд: Начало / Robin Hood (Отто Батхёрст) [2018, боевик, приключения, WEBRip 1080p] [Ukr DUB] pb.wtf

Робин Гуд: Начало через торрент pb.wtf

Раздают: 1 [ 0 KB/s ]
Размер: 3.58 GB | Добавлен: 11 мес. назад | Торрент скачан:89 раз
Скачать  

28-01-2019 08:05 Робин Гуд: Начало Скачать торрент  

Робин Гуд: Начало / Robin Hood
Год выпуска: 2018
Страна: США
Жанр: боевик, приключения
Продолжительность: 01:56:02
Перевод : Украинский (дублированный)
Субтитры: вшитые (корейские)

Режиссер: Кристиан Риверс

В ролях: Тэрон Эджертон, Джейми Фокс, Бен Мендельсон, Ив Хьюсон, Джейми Дорнан, Тим Минчин, Пол Андерсон, Ф. Мюррэй Абрахам, Йен Пек, Корнелиус Бут

Описание: Ветеран Крестовых походов Робин из Локсли и его командир-мавр по возвращении в Англию видят, что родная страна погрязла в коррупции. Вместе они решают изменить положение дел и запускают маховики массовой революции, в центре которой окажется загадочный разбойник.

rating
скриншот  

Качество : WEBRip 1080p
Формат видео : MKV
Видео : 1920x800, 23.976 fps, ~3961 kbps avg
Звук 1 : 48 kHz, AC3 Dolby Digital, 2 ch, ~192 kbps - Ukr DUB
Звук 2 : 48 kHz, AAC Dolby Digital, 2 ch, ~256 kbps - Eng
General
Unique ID : 317793158487139438552928648635648221013 (0xEF14BC6AD5D9680C6F2B8530A9569F55)
Complete name : S:\» HD українською » Фільми в HD\Пригоди\Robin Hood (2018) WEBRip 1080p [UKR_ENG] [Hurtom].mkv
Format : Matroska
Format version : Version 4
File size : 3.58 GiB
Duration : 1 h 56 min
Overall bit rate : 4 411 kb/s
Movie name : Robin Hood (2018) WEBRip 1080p [UKR_ENG] [Hurtom]
Encoded date : UTC 2019-01-27 20:15:00
Writing application : mkvmerge v30.1.0 ('Forever And More') 64-bit
Writing library : libebml v1.3.6 + libmatroska v1.4.9
Cover : Yes
Attachments : cover.jpg

Video
ID : 1
Format : AVC
Format/Info : Advanced Video Codec
Format profile : High@L4.1
Format settings : CABAC / 4 Ref Frames
Format settings, CABAC : Yes
Format settings, ReFrames : 4 frames
Codec ID : V_MPEG4/ISO/AVC
Duration : 1 h 56 min
Bit rate : 3 961 kb/s
Width : 1 920 pixels
Height : 800 pixels
Display aspect ratio : 2.40:1
Frame rate mode : Constant
Frame rate : 23.976 (24000/1001) FPS
Color space : YUV
Chroma subsampling : 4:2:0
Bit depth : 8 bits
Scan type : Progressive
Bits/(Pixel*Frame) : 0.108
Stream size : 3.21 GiB (90%)
Title : Robin.Hood.2018.1080p.KORSUB.HDRip.x264.AAC2.0-STUTTERSHIT
Default : Yes
Forced : No
Color range : Limited
Color primaries : BT.709
Transfer characteristics : BT.709
Matrix coefficients : BT.709

Audio #1
ID : 2
Format : AC-3
Format/Info : Audio Coding 3
Commercial name : Dolby Digital
Codec ID : A_AC3
Duration : 1 h 56 min
Bit rate mode : Constant
Bit rate : 192 kb/s
Channel(s) : 2 channels
Channel layout : L R
Sampling rate : 48.0 kHz
Frame rate : 31.250 FPS (1536 SPF)
Bit depth : 16 bits
Compression mode : Lossy
Stream size : 159 MiB (4%)
Language : Ukrainian
Service kind : Complete Main
Default : Yes
Forced : Yes

Audio #2
ID : 3
Format : AAC LC
Format/Info : Advanced Audio Codec Low Complexity
Codec ID : A_AAC-2
Duration : 1 h 56 min
Bit rate : 256 kb/s
Channel(s) : 2 channels
Channel layout : L R
Sampling rate : 48.0 kHz
Frame rate : 46.875 FPS (1024 SPF)
Compression mode : Lossy
Delay relative to video : 146 ms
Stream size : 212 MiB (6%)
Title : Robin.Hood.2018.1080p.KORSUB.HDRip.x264.AAC2.0-STUTTERSHIT
Language : English
Default : No
Forced : No
скриншот  скриншот  скриншот  
pb.wtf



Скачать Робин Гуд: Начало через торрент https://i110.fastpic.ru/big/2019/0127/7f/5de6e9f9e86e8dfc563e7f28fd65cc7f.jpg Скачать фильм Робин Гуд: Начало через торрент бесплантно в хорошем качестве Описание: Ветеран Крестовых походов Робин из Локсли и его командир-мавр по возвращении в Англию видят, что родная страна погрязла в ... 9.7 10 3
Info! Золотая раздача, скачанное не засчитывается.
Торрент: Зарегистрирован [2019-01-28 08:05] · скачан: 89 раз
Статус: T временная
Размер: 3.58 GB
Как cкачать? Как скачать Робин Гуд: Начало через торрент | qTorrent

% Раздел Тема Автор DL S | L
Фильмы (HD 720p, 1080p) (48-60 fps) [ 26.48 GB ] Робин Гуд: Начало / Robin Hood [2018 BDRip 1080p 60 fps] sheker187 Скачать
2 | 0
Ultra HD (UHD: 2K, 4K, 8K) — видео сверхвысокой чёткости [ 85.87 GB ] Робин Гуд: Начало / Robin Hood [2018 UHD Blu-ray 2160p] [Dolby Vision] sheker187 Скачать
1 | 0
Фильмы 2018 [DVDrip, WEB-DLRip, HDrip] (DUB, MVO) [ 2.13 GB ] Робин Гуд: Начало / Robin Hood [2018 BDRip] - Twi7ter Скачать
6 | 0
Фильмы [HD 720p, 1080p] (Хороший звук DUB, MVO) [ 9.5 GB ] Робин Гуд: Начало / Robin Hood [2018 BDRip 1080p] MVO [HDrezka Studio] + bober100 Скачать
6 | 0
Фильмы 2018 [DVDrip, WEB-DLRip, HDrip] (DUB, MVO) [ 1.41 GB ] Робин Гуд: Начало / Robin Hood [2018 BDRip] bober100 Скачать
2 | 0
Фильмы [HD 720p, 1080p] (Хороший звук DUB, MVO) [ 8.49 GB ] Робин Гуд: Начало / Robin Hood [2018 BDRip-HEVC 1080p ] bober100 Скачать
7 | 0
Фильмы 2018 [DVDrip, WEB-DLRip, HDrip] (DUB, MVO) [ 1.46 GB ] Робин Гуд: Начало / Robin Hood [2018 BDRip] - Twi7ter Скачать
7 | 0

28-11-2019 20:33  

Отключить всю рекламу на сайте

10-02-2019 15:00 Робин Гуд: Начало Скачать торрент  

Скачал,а на язык глянуть было не судьба.Буду качать свой родной могучий.pb.wtf



10-02-2019 18:05 Робин Гуд: Начало Скачать торрент  

vivaz79 писал(а):

Скачал,а на язык глянуть было не судьба.Буду качать свой родной могучий.

Клоун)))pb.wtf



08-06-2019 18:30 Робин Гуд: Начало Скачать торрент  

Apofioz писал(а):

vivaz79 писал(а):

Скачал,а на язык глянуть было не судьба.Буду качать свой родной могучий.

Клоун)))

+1pb.wtf



    Дорогой пользователь! Огромная просьба, поблагодарите релизера, оцените раздачу и оставьте свои комментарий, если Вы скачали Робин Гуд: Начало через торрент бесплатно! Внесите свою лепту в развитие PiratBit!
    Комментировать посты могут только пользователи прошедшие не сложную регистрацию
    Показать сообщения:    

    Робин Гуд: Начало через торрент
    Скачать бесплатно Робин Гуд: Начало
    Робин Гуд: Начало скачать торрент
    Робин Гуд: Начало смотреть онлайн
    Cкачать фильм Робин Гуд: Начало бесплатно
    Робин Гуд: Начало скачать торрент в хорошем качестве
    Робин Гуд: Начало смотреть онлайн бесплатно в хорошем качестве


    Вы не можете начинать темы
    Вы не можете отвечать на сообщения
    Вы не можете редактировать свои сообщения
    Вы не можете удалять свои сообщения
    Вы не можете голосовать в опросах
    Вы не можете прикреплять файлы к сообщениям
    Вы можете скачивать файлы