Ссылка на приватное зеркало всего за 1$. Внимание количество ограничено!!!

OK

1+1

iTunes

мы

OK

1

WEB-DLRip

Джокер

Пифагор

Ведьмак / The Witcher сериал

Лицензия

ПШазам

ОК

Оно 2

iTunes

30
pack

Вам бонус

ВАЖНО

!!Акция!!

Alien_RageХит недели

RePack

Resident Evil 21

ИГРА 18+

pack

RePack

jed

RePack

fifa19

RePack

Assassins Creed: Odyssey

RePack

NEED FOR SPEED™ PAYBACK

4 сезон

9 сезон

Бесстыжие 9 сезон

Все сериалы

все сериалы на PB.wtf

RePack

FAR CRY 5
  

Бюро человечества / The Humanity Bureau (Роб В. Кинг) [2017, Фантастика, боевик, BDRip 1080p] MVO [Официальный звук] pb.wtf

Бюро человечества через торрент pb.wtf

Размер: 8.38 GB | Добавлен: 11 мес. назад | Торрент скачан:96 раз
Скачать  

28-01-2019 10:22 Бюро человечества Скачать торрент  

Бюро человечества / The Humanity Bureau Год выпуска: 2017
Страна: Канада
Жанр: Фантастика, боевик
Продолжительность: 01:35:31
Перевод: Профессиональный (многоголосый) | Официальный звук
Субтитры: отсутствуют

Режиссер: Роб В. Кинг

rating

В ролях:

Николас Кейдж, Сара Линд, Хью Диллон, Виселос Реон Шеннон, Джейкоб Дейвис, Лорни Кардинал, Джетт Клине, Дэвид Ловгрен, Лео Фафард, Курт Макс Рунте

Описание:

В отдалённом будущем американское правительство утвердило секретную программу, по которой бедных, необразованных и неугодных стране людей сначала высылают в колонию, а затем уничтожают. Одно из таких дел попадает в руки агента. Проникшись симпатией к одинокой матери и её сыну, он решает помочь им бежать.

Качество: BDRip 1080p
Формат: MKV

Видео: h.264,12.1 Mb/s, 1920x804
Аудио#1: Русский (AC3, 2 ch, 448 Кбит/с)
скриншот  скриншот  скриншот  

Общее
Уникальный идентификатор : 248745063309533566105851081868935828592 (0xBB228E7CFC619FE8A7D6D22133761470)
Полное имя : E:\торреннты\The.Humanity.Bureau.2017.Pof.BDRip.1O8Op.mkv
Формат : Matroska
Версия формата : Version 2
Размер файла : 8,38 Гбайт
Продолжительность : 1 ч. 35 м.
Режим общего битрейта : Переменный
Общий поток : 12,6 Мбит/сек
Дата кодирования : UTC 2019-01-28 02:06:57
Программа кодирования : mkvmerge v8.3.0 ('Over the Horizon') 64bit
Библиотека кодирования : libebml v1.3.1 + libmatroska v1.4.2

Видео
Идентификатор : 1
Формат : AVC
Формат/Информация : Advanced Video Codec
Профиль формата : High@L4.1
Настройки формата : CABAC / 4 Ref Frames
Параметр CABAC формата : Да
Параметр RefFrames формата : 4 кадра
Идентификатор кодека : V_MPEG4/ISO/AVC
Продолжительность : 1 ч. 35 м.
Вид битрейта : Переменный
Битрейт : 12,1 Мбит/сек
Максимальный битрейт : 14,0 Мбит/сек
Ширина : 1920 пикселей
Высота : 804 пикселя
Соотношение сторон : 2,40:1
Режим частоты кадров : Постоянный
Частота кадров : 23,976 (24000/1001) кадра/сек
Стандарт вещания : Component
Цветовое пространство : YUV
Субдискретизация насыщенности : 4:2:0
Битовая глубина : 8 бит
Тип развёртки : Прогрессивная
Бит/(Пиксели*Кадры) : 0.320
Размер потока : 7,91 Гбайт (94%)
Default : Да
Forced : Нет
Цветовой диапазон : Limited
Основные цвета : BT.709
Характеристики трансфера : BT.709
Коэффициенты матрицы : BT.709

Аудио
Идентификатор : 2
Формат : AC-3
Формат/Информация : Audio Coding 3
Идентификатор кодека : A_AC3
Продолжительность : 1 ч. 35 м.
Вид битрейта : Постоянный
Битрейт : 448 Кбит/сек
Каналы : 2 канала
Расположение каналов : Front: L R
Частота : 48,0 КГц
Частота кадров : 31,250 кадров/сек (1536 SPF)
Битовая глубина : 16 бит
Метод сжатия : С потерями
Размер потока : 306 Мбайт (4%)
ServiceKind/String : Complete Main
Default : Да
Forced : Нет

pb.wtf



Скачать Бюро человечества через торрент http://img12.lostpic.net/2018/03/18/47cbf63b5733a4bc6d077d3e58c1c519.jpg Скачать фильм Бюро человечества через торрент бесплантно в хорошем качестве Описание: В отдалённом будущем американское правительство утвердило секретную программу, по которой бедных, необразованных и неугодных ... 10 10 3
Торрент: Зарегистрирован [2019-01-28 10:22] · скачан: 96 раз
Статус: # сомнительно
Размер: 8.38 GB
Как cкачать? Как скачать Бюро человечества через торрент | qTorrent

% Раздел Тема Автор DL S | L
# Фильмы (мультфильмы) cо спонсором показа (Новинки AVI/MKV) [ 4.69 GB ] Бюро человечества / The Humanity Bureau [2017 BDRip 720p] MVO [Официальный звук] bober100 Скачать
1 | 0
T Фильмы (мультфильмы) cо спонсором показа (Новинки AVI/MKV) [ 1.37 GB ] Бюро человечества / The Humanity Bureau [2017 HDRip] MVO [Официальный звук] bober100 Скачать
2 | 0
T Фильмы 2017 [DVDrip, WEB-DLRip, HDrip] (DUB, MVO) [ 1.48 GB ] Бюро человечества / The Humanity Bureau [2017 BDRip-AVC] MVO - ExKinoRay Enigma2010 Скачать
2 | 0
T Фильмы [HD 720p, 1080p] (Хороший звук DUB, MVO) [ 3.22 GB ] Бюро человечества / The Humanity Bureau [2017 BDRip 720p] MVO - ExKinoRay Enigma2010 Скачать
2 | 0
T Фильмы (Blu-ray, BD-Remux, HDDVD) [ 22.42 GB ] Бюро человечества / The Humanity Bureau [2017 BD Remux 1080p] MVO [@MUZOBOZ@] bober100 Скачать
1 | 0

28-11-2019 20:33  

Отключить всю рекламу на сайте

28-01-2019 19:44 Бюро человечества Скачать торрент  

Это даже не второй сорт......Как Кейдж опустился за такое короткое время до этого.......И вспоминаю Задорнова - в фильме счетчик Гейгера выпуска 1901года.....pb.wtf



    Дорогой пользователь! Огромная просьба, поблагодарите релизера, оцените раздачу и оставьте свои комментарий, если Вы скачали Бюро человечества через торрент бесплатно! Внесите свою лепту в развитие PiratBit!
    Комментировать посты могут только пользователи прошедшие не сложную регистрацию
    Показать сообщения:    

    Бюро человечества через торрент
    Скачать бесплатно Бюро человечества
    Бюро человечества скачать торрент
    Бюро человечества смотреть онлайн
    Cкачать фильм Бюро человечества бесплатно
    Бюро человечества скачать торрент в хорошем качестве
    Бюро человечества смотреть онлайн бесплатно в хорошем качестве


    Вы не можете начинать темы
    Вы не можете отвечать на сообщения
    Вы не можете редактировать свои сообщения
    Вы не можете удалять свои сообщения
    Вы не можете голосовать в опросах
    Вы не можете прикреплять файлы к сообщениям
    Вы можете скачивать файлы