Ссылка на приватное зеркало нашего сайта всего за 1$. Внимание количество ограничено!!!

2 сезон

iTunes

iTunes

1

iTunes

iTunes

iTunes

WEBRip

iTunes

30
pack

Вам бонус

ВАЖНО

!!Акция!!

Alien_RageХит недели

RePack

Horizon Zero Dawn

ИГРА 18+

pack

RePack

jed

!!Акция!!

Alien_Rage

RePack

fifa19

RePack

Assassins Creed: Odyssey

RePack

NEED FOR SPEED™ PAYBACK

4 сезон

9 сезон

Бесстыжие 9 сезон

Все сериалы

все сериалы на PB.wtf

RePack

FAR CRY 5
  

Бюро человечества / The Humanity Bureau (Роб В. Кинг) [2017, Фантастика, боевик, BDRip 1080p] MVO [iTunes] pb.wtf

Бюро человечества через торрент pb.wtf

Размер: 7.81 GB | Добавлен: 2 мес. 25 д. назад | Торрент скачан:57 раз
Скачать  

28-01-2019 10:22 Бюро человечества Скачать торрент  

Бюро человечества | The Humanity Bureau
Год выпуска: 2017
Страна: Канада
Выпущено: Bridgegate Pictures, Minds Eye Entertainment, VMI Worldwide
Жанр: Фантастика, боевик
Продолжительность: 01:34:35
Перевод: Профессиональный (многоголосый) | iTunes
Субтитры: отсутствуют

Режиссер: Роб В. Кинг

rating

В ролях: Николас Кейдж, Сара Линд, Хью Диллон, Виселос Реон Шеннон, Джейкоб Дейвис, Лорни Кардинал, Джетт Клине, Дэвид Ловгрен, Лео Фафард, Курт Макс Рунте

Описание: В отдалённом будущем американское правительство утвердило секретную программу, по которой бедных, необразованных и неугодных стране людей сначала высылают в колонию, а затем уничтожают. Одно из таких дел попадает в руки агента. Проникшись симпатией к одинокой матери и её сыну, он решает помочь им бежать.

Качество: BDRip 1080p
Формат: MKV

Видео: MPEG-4 AVC, 11.0 Мb/s, 1920x804
Аудио #1 Russian: 48 kHz, AC3 Dolby Digital, 2/0 (L, R) ch, ~192 Kbps | iTunes
Аудио #2 English: 48 kHz, AC3 Dolby Digital, 3/2 (L, C, R, l, r) + LFE ch, ~640 Kbps | Original
скриншот  скриншот  скриншот  скриншот  

Complete name: Byuro.chelovechestva.2017.1080p.BluRay.ELEKTRI4KA.UNIONGANG.mkv
Format: Matroska
Format version: Version 4 / Version 2
File size: 7.81 GiB
Duration: 1 h 34 min
Overall bit rate: 11.8 Mb/s
Movie name: .ELEKTRI4KA.UNIONGANG.
Encoded date: UTC 2020-06-29 20:49:16
Writing application: mkvmerge v8.3.0 ('Over the Horizon') 64bit
Writing library: libebml v1.3.1 + libmatroska v1.4.2

Video
ID: 1
Format: AVC
Format/Info: Advanced Video Codec
Format profile: High@L5.1
Format settings, CABAC: Yes
Format settings, Reference frames: 10 frames
Codec ID: V_MPEG4/ISO/AVC
Duration: 1 h 34 min
Bit rate: 11.0 Mb/s
Width: 1 920 pixels
Height: 804 pixels
Display aspect ratio: 2.40:1
Frame rate mode: Constant
Frame rate: 24.000 FPS
Color space: YUV
Chroma subsampling: 4:2:0
Bit depth: 8 bits
Scan type: Progressive
Bits/(Pixel*Frame): 0.297
Stream size: 7.26 GiB (93%)
Title: .ELEKTRI4KA.UNIONGANG.
Writing library: x264 core 142 r2431+42 c69a006 tMod [8-bit@all X86_64]
Encoding settings: cabac=1 / ref=10 / deblock=1:-3:-3 / analyse=0x3:0x113 / me=umh / subme=11 / psy=1 / fade_compensate=0.00 / psy_rd=1.05:1.05 / mixed_ref=1 / me_range=48 / chroma_me=1 / trellis=2 / 8x8dct=1 / cqm=0 / deadzone=21, 11 / fast_pskip=0 / chroma_qp_offset=-4 / threads=16 / lookahead_threads=2 / sliced_threads=0 / nr=0 / decimate=0 / interlaced=0 / bluray_compat=0 / constrained_intra=0 / fgo=0 / bframes=8 / b_pyramid=2 / b_adapt=2 / b_bias=0 / direct=3 / weightb=1 / open_gop=0 / weightp=2 / keyint=240 / keyint_min=24 / scenecut=40 / intra_refresh=0 / rc_lookahead=150 / rc=2pass / mbtree=0 / bitrate=11000 / ratetol=1.0 / qcomp=0.60 / qpmin=0:0:0 / qpmax=69:69:69 / qpstep=4 / cplxblur=20.0 / qblur=0.5 / vbv_maxrate=300000 / vbv_bufsize=300000 / nal_hrd=none / filler=0 / ip_ratio=1.30 / pb_ratio=1.20 / aq=2:0.90 / aq-sensitivity=10.00 / aq-factor=1.00:1.00:1.00 / aq2=0 / aq3=0
Default: Yes
Forced: No
Color range: Limited
Color primaries: BT.709
Transfer characteristics: BT.709
Matrix coefficients: BT.709

Audio #1
ID: 2
Format: AC-3
Format/Info: Audio Coding 3
Mode extension: CM (complete main)
Format settings, Endianness: Big
Codec ID: A_AC3
Duration: 1 h 34 min
Bit rate mode: Constant
Bit rate: 192 kb/s
Channel(s): 2 channels
Channel positions: Front: L R
Sampling rate: 48.0 kHz
Frame rate: 31.250 FPS (1536 spf)
Bit depth: 16 bits
Compression mode: Lossy
Stream size: 130 MiB (2%)
Title: iTunes
Language: Russian
Default: Yes
Forced: No

Audio #2
ID: 3
Format: AC-3
Format/Info: Audio Coding 3
Mode extension: CM (complete main)
Format settings, Endianness: Big
Codec ID: A_AC3
Duration: 1 h 34 min
Bit rate mode: Constant
Bit rate: 640 kb/s
Channel(s): 6 channels
Channel positions: Front: L C R, Side: L R, LFE
Sampling rate: 48.0 kHz
Frame rate: 31.250 FPS (1536 spf)
Bit depth: 16 bits
Compression mode: Lossy
Stream size: 433 MiB (5%)
Language: English
Default: No
Forced: No

Menu
00:00:00.000: en:00:00:00.000
00:00:34.042: en:00:00:34.042
00:09:47.917: en:00:09:47.917
00:15:59.208: en:00:15:59.208
00:24:11.625: en:00:24:11.625
00:32:02.542: en:00:32:02.542
00:38:55.375: en:00:38:55.375
00:48:29.375: en:00:48:29.375
00:55:07.000: en:00:55:07.000
01:04:01.833: en:01:04:01.833
01:12:48.500: en:01:12:48.500
01:20:40.083: en:01:20:40.083
01:29:33.667: en:01:29:33.667

pb.wtf



Скачать Бюро человечества через торрент https://i1.imageban.ru/out/2020/06/30/1879fc5438178276a6f09cc34e145b29.png Скачать фильм Бюро человечества через торрент бесплантно в хорошем качестве Описание: В отдалённом будущем американское правительство утвердило секретную программу, по которой бедных, необразованных и неугодных ... 10 10 4
Торрент: Зарегистрирован [2020-06-30 18:31] · скачан: 57 раз
Статус: √ проверено
Размер: 7.81 GB
Как cкачать? Как скачать Бюро человечества через торрент | qTorrent

% Раздел Тема Автор DL S | L
Фильмы 2017 [DVDrip, WEB-DLRip, HDrip] (DUB, MVO) [ 1.48 GB ] Бюро человечества / The Humanity Bureau [2017 BDRip-AVC] MVO - ExKinoRay Enigma2010 Скачать
8 | 1
Фильмы 2017 [DVDrip, WEB-DLRip, HDrip] (DUB, MVO) [ 743 MB ] Бюро человечества / The Humanity Bureau [2017 HDRip] MVO bober100 Скачать
2 | 0
Фильмы 2017 [DVDrip, WEB-DLRip, HDrip] (DUB, MVO) [ 1.46 GB ] Бюро человечества / The Humanity Bureau [2017 BDRip] MVO bober100 Скачать
1 | 0
Фильмы [HD 720p, 1080p] (Хороший звук DUB, MVO) [ 3.85 GB ] Бюро человечества / The Humanity Bureau [2017 BDRip 720p] MVO bober100 Скачать
1 | 0
Фильмы [HD 720p, 1080p] (Хороший звук DUB, MVO) [ 3.22 GB ] Бюро человечества / The Humanity Bureau [2017 BDRip 720p] MVO - ExKinoRay Enigma2010 Скачать
8 | 0
T Фильмы (Blu-ray, BD-Remux, HDDVD) [ 22.42 GB ] Бюро человечества / The Humanity Bureau [2017 BD Remux 1080p] MVO [@MUZOBOZ@] bober100 Скачать
1 | 0


Последний раз редактировалось: bober100 (2020-06-30 18:31), всего редактировалось 1 раз

28-11-2019 20:33  

Отключить всю рекламу на сайте

    Дорогой пользователь! Огромная просьба, поблагодарите релизера, оцените раздачу и оставьте свои комментарий, если Вы скачали Бюро человечества через торрент бесплатно! Внесите свою лепту в развитие PiratBit!
    Комментировать посты могут только пользователи прошедшие не сложную регистрацию
    Показать сообщения:    

    Бюро человечества через торрент
    Скачать бесплатно Бюро человечества
    Бюро человечества скачать торрент
    Бюро человечества смотреть онлайн
    Cкачать фильм Бюро человечества бесплатно
    Бюро человечества скачать торрент в хорошем качестве
    Бюро человечества смотреть онлайн бесплатно в хорошем качестве


    Вы не можете начинать темы
    Вы не можете отвечать на сообщения
    Вы не можете редактировать свои сообщения
    Вы не можете удалять свои сообщения
    Вы не можете голосовать в опросах
    Вы не можете прикреплять файлы к сообщениям
    Вы можете скачивать файлы