Ссылка на приватное зеркало всего за 1$. Внимание количество ограничено!!!

OK

1+1

iTunes

мы

OK

1

WEB-DLRip

Джокер

Пифагор

Ведьмак / The Witcher сериал

Лицензия

ПШазам

ОК

Оно 2

iTunes

30
pack

Вам бонус

ВАЖНО

!!Акция!!

Alien_RageХит недели

RePack

Resident Evil 21

ИГРА 18+

pack

RePack

jed

RePack

fifa19

RePack

Assassins Creed: Odyssey

RePack

NEED FOR SPEED™ PAYBACK

4 сезон

9 сезон

Бесстыжие 9 сезон

Все сериалы

все сериалы на PB.wtf

RePack

FAR CRY 5
  

Инопланетная экспедиция / Alien Expedition (Уоллес Бразерс) [2018, Фантастика, BDRip 720p] MVO ["Синема УС"] pb.wtf

Инопланетная экспедиция через торрент pb.wtf

Размер: 4.75 GB | Добавлен: 11 мес. назад | Торрент скачан:226 раз
Скачать  

28-01-2019 10:35 Инопланетная экспедиция Скачать торрент  

Инопланетная экспедиция / Alien ExpeditionГод выпуска: 2018
Страна: США
Жанр: Фантастика
Продолжительность: 01:35:28
Перевод: Любительский (многоголосый) | "Синема УС"
Субтитры: отсутствуют

Режиссер: Уоллес Бразерс

rating

В ролях:

С.Дж. Бэйкер, Эдвард Гастс, Этан Макдауэлл, Грегори Нибел, Уитни Нилсен, Антуоне Торберт, Линда Вонг, Мотаун Морис, Янника Олин

Описание:

Космический исследовательский корабль, на борту которого находятся и люди, и андроиды, натыкается на планету, пригодную для жизни. Задача команды - исследовать потенциал новой планеты. Но отправленная на разведку экспедиция вскоре вынуждена вступить в сражение с негостеприимной фауной не на жизнь, а на смерть.

Качество: BDRip 720p
Формат: MKV

Видео: h.264, 6 666 kb/s, 1280x544
Аудио#1: Русский (AC3, 2 ch, 448 Кбит/с)
скриншот  скриншот  скриншот  

Общее
Уникальный идентификатор : 235988607242380037290030229707846192085 (0xB189C0A54C0FC847891861E32E3E0BD5)
Полное имя : E:\торреннты\Alien.Expedition.Voyage.Into.Fear.2018.P.BDRip.72Op_KOSHARA.mkv
Формат : Matroska
Версия формата : Version 2
Размер файла : 4,75 Гбайт
Продолжительность : 1 ч. 35 м.
Режим общего битрейта : Переменный
Общий поток : 7116 Кбит/сек
Дата кодирования : UTC 2019-01-27 20:26:33
Программа кодирования : mkvmerge v8.3.0 ('Over the Horizon') 64bit
Библиотека кодирования : libebml v1.3.1 + libmatroska v1.4.2

Видео
Идентификатор : 1
Формат : AVC
Формат/Информация : Advanced Video Codec
Профиль формата : High@L4.1
Настройки формата : CABAC / 4 Ref Frames
Параметр CABAC формата : Да
Параметр RefFrames формата : 4 кадра
Идентификатор кодека : V_MPEG4/ISO/AVC
Продолжительность : 1 ч. 35 м.
Вид битрейта : Переменный
Битрейт : 6666 Кбит/сек
Максимальный битрейт : 7500 Кбит/сек
Ширина : 1280 пикселей
Высота : 544 пикселя
Соотношение сторон : 2,35:1
Режим частоты кадров : Постоянный
Частота кадров : 23,976 (24000/1001) кадра/сек
Стандарт вещания : Component
Цветовое пространство : YUV
Субдискретизация насыщенности : 4:2:0
Битовая глубина : 8 бит
Тип развёртки : Прогрессивная
Бит/(Пиксели*Кадры) : 0.391
Размер потока : 4,35 Гбайт (92%)
Default : Да
Forced : Нет
Цветовой диапазон : Limited
Основные цвета : BT.709
Характеристики трансфера : BT.709
Коэффициенты матрицы : BT.709

Аудио
Идентификатор : 2
Формат : AC-3
Формат/Информация : Audio Coding 3
Идентификатор кодека : A_AC3
Продолжительность : 1 ч. 35 м.
Вид битрейта : Постоянный
Битрейт : 448 Кбит/сек
Каналы : 2 канала
Расположение каналов : Front: L R
Частота : 48,0 КГц
Частота кадров : 31,250 кадров/сек (1536 SPF)
Битовая глубина : 16 бит
Метод сжатия : С потерями
Размер потока : 306 Мбайт (6%)
ServiceKind/String : Complete Main
Default : Да
Forced : Нет

pb.wtf



Скачать Инопланетная экспедиция через торрент http://img11.lostpic.net/2018/09/30/18efa2703f689241349baad4c1562d79.jpg Скачать фильм Инопланетная экспедиция через торрент бесплантно в хорошем качестве Описание: Космический исследовательский корабль, на борту которого находятся и люди, и андроиды, натыкается на планету, пригодную для ... 7.6 10 7
Торрент: Зарегистрирован [2019-01-28 10:35] · скачан: 226 раз
Статус: # сомнительно
Размер: 4.75 GB
Как cкачать? Как скачать Инопланетная экспедиция через торрент | qTorrent

% Раздел Тема Автор DL S | L
T Фильмы (мультфильмы) cо спонсором показа (Новинки AVI/MKV) [ 1.37 GB ] Инопланетная экспедиция / Alien Expedition [2018 HDRip] MVO ["Синема УС"] bober100 Скачать
2 | 0

28-11-2019 20:33  

Отключить всю рекламу на сайте

28-01-2019 11:52 Инопланетная экспедиция Скачать торрент  

фигня какая-то, а не браззерс...pb.wtf



28-01-2019 12:05 Инопланетная экспедиция Скачать торрент  

Натыкаются на планету...споткнулись,бл.... очередной высер даже и не пойми кого и с кем в ролях.pb.wtf



28-01-2019 13:54 Инопланетная экспедиция Скачать торрент  

С.Дж. Бэйкер, Эдвард Гастс, Этан Макдауэлл, Грегори Нибел, Уитни Нилсен, Антуоне Торберт, Линда Вонг, Мотаун Морис, Янника Олин...

КТО ВСЕ ЭТИ ЛЮДИ?

Походу это пародия на "Чужой - Завет"pb.wtf



28-01-2019 18:14 Инопланетная экспедиция Скачать торрент  

да вы корабль то видели, какие то ящики летающие. Во время прохода через атмосферу такой корабль развалится как картон. Снимут же такое )))))pb.wtf



    Дорогой пользователь! Огромная просьба, поблагодарите релизера, оцените раздачу и оставьте свои комментарий, если Вы скачали Инопланетная экспедиция через торрент бесплатно! Внесите свою лепту в развитие PiratBit!
    Комментировать посты могут только пользователи прошедшие не сложную регистрацию
    Показать сообщения:    

    Инопланетная экспедиция через торрент
    Скачать бесплатно Инопланетная экспедиция
    Инопланетная экспедиция скачать торрент
    Инопланетная экспедиция смотреть онлайн
    Cкачать фильм Инопланетная экспедиция бесплатно
    Инопланетная экспедиция скачать торрент в хорошем качестве
    Инопланетная экспедиция смотреть онлайн бесплатно в хорошем качестве


    Вы не можете начинать темы
    Вы не можете отвечать на сообщения
    Вы не можете редактировать свои сообщения
    Вы не можете удалять свои сообщения
    Вы не можете голосовать в опросах
    Вы не можете прикреплять файлы к сообщениям
    Вы можете скачивать файлы