Ссылка на приватное зеркало нашего сайта всего за 1$. Внимание количество ограничено!!!

2 сезон

iTunes

1 сезон

1

iTunes

iTunes

iTunes

1 сезон

RePack

30

ИГРА 18+

pack

ВАЖНО

!!Акция!!

Alien_RageХит недели

RePack

MK11
pack

Забери бонус

RePack

jed

!!Акция!!

Alien_Rage

RePack

fifa19

RePack

Assassins Creed: Odyssey

RePack

NEED FOR SPEED™ PAYBACK

4 сезон

9 сезон

Бесстыжие 9 сезон

Все сериалы

все сериалы на PB.wtf

RePack

FAR CRY 5
  

Ланцет / Сезон: 1 / Серии: 1-16 из 16 (Елена Николаева) [2019, Детектив, драма, мелодрама, HDTVRip] pb.wtf

Ланцет через торрент pb.wtf

Размер: 11.22 GB | Добавлен: 1 год 8 мес. назад | Торрент скачан:81 раз
Скачать  

28-01-2019 17:16 Ланцет Скачать торрент  

Ланцет
Год выпуска: 2019
Страна: Россия
Жанр: Детектив, драма, мелодрама
Продолжительность: ~ 00:55:00
Перевод: Не требуется
Субтитры: отсутствуют

Режиссер: Елена Николаева



В ролях:

Павел Трубинер, Борис Каморзин, Евгения Симонова, Полина Агуреева, Иван Жидков, Софья Синицына, Григорий Зельцер, Иван Агапов, Дмитрий Калязин, Артемий Шаффер, Александр Сергеев (IV), Наталья Высочанская, Антон Косточкин, Сергей Долготович, Олег Чудницов, Александр Пугачёв (II), Алексей Кирсанов, Александр Касаткин (II), Анастасия Дубровина, Алла Криницына, Владимир Чуприков, Виталия Корниенко, Алексей Кирилин, Мария Бортник, Александр Хованский (II), Иван Рудаков, Надежда Иванко, Екатерина Гудина, Анна Галлямова, Эрик Яралов, Ксения Ильясова

Описание:

Прозвище «Ланцет» Илья Ладынин получил еще в мединституте за свою любовь к хирургии. Сейчас Ладынин на грани отчаяния: жена скоропостижно скончалась, сын винит его в смерти матери и переезжает к бабушке. Только работа могла бы «вылечить», но сбывается самый страшный кошмар любого хирурга — тремор. Ладынин теряет пациента и больше не может оперировать. Он уже готов уйти из медицины, но получает неожиданное предложение – возглавить подразделение больницы, занимающееся внутренними расследованиями. Илья решает, что новое назначение поможет разобраться в том, что пошло не так в лечении его жены, и соглашается..

Качество: HDTVRip
Формат: AVI

Видео: XviD, ~ 1800 Кбит/с, 720x400
Аудио: AC3, 2 ch, 192 Кбит/с
скриншот  скриншот  скриншот  скриншот  

Общее
Полное имя : D:Lancet.HDTVRip.GeneralFilm1.Lancet.HDTVRip.GeneralFilm.avi
Формат : AVI
Формат/Информация : Audio Video Interleave
Размер файла : 708 Мбайт
Продолжительность : 50 м. 15 с.
Общий поток : 1968 Кбит/сек

Видео
Идентификатор : 0
Формат : MPEG-4 Visual
Профиль формата : Advanced Simple@L5
Параметр BVOP формата : 1
Параметр QPel формата : Нет
Параметр GMC формата : Без точки перехода
Параметр матрицы формата : Выборочная
Идентификатор кодека : XVID
Идентификатор кодека/Подсказка : XviD
Продолжительность : 50 м. 15 с.
Битрейт : 1765 Кбит/сек
Ширина : 720 пикселей
Высота : 400 пикселей
Соотношение сторон : 16:9
Частота кадров : 25,000 кадров/сек
Цветовое пространство : YUV
Субдискретизация насыщенности : 4:2:0
Битовая глубина : 8 бит
Тип развёртки : Прогрессивная
Метод сжатия : С потерями
Бит/(Пиксели*Кадры) : 0.245
Размер потока : 634 Мбайт (90%)
Библиотека кодирования : XviD 1.2.1 (UTC 2008-12-04)

Аудио
Идентификатор : 1
Формат : AC-3
Формат/Информация : Audio Coding 3
Расширение режима : CM (complete main)
Параметр Endianness формата : Big
Идентификатор кодека : 2000
Продолжительность : 50 м. 15 с.
Вид битрейта : Постоянный
Битрейт : 192 Кбит/сек
Каналы : 2 канала
Расположение каналов : Front: L R
Частота : 48,0 КГц
Частота кадров : 31,250 кадров/сек (1536 spf)
Битовая глубина : 16 бит
Метод сжатия : С потерями
Размер потока : 69,0 Мбайт (10%)
Выравнивание : Соединение по промежуткам
Продолжительность промежутка : 32 мс. (0,80 видеокадр)

Когда раздача ведётся путём добавления новых серий, при каждом добавлении создётся новый торрент. Чтобы начать докачку новой серии, пользователям необходимо сделать следующее:
(1) остановить скачивание,
(2) удалить старый торрент у себя из клиента (старые серии удалять не надо),
(3) скачать новый торрент и запустить его у себя в клиенте вместо старого, при этом указать клиенту путь в старую папку, куда и должно происходить скачивание новых серий.
Ваш клиент при этом должен произвести хеширование (проверку) старой папки (если не производит сам - помогите ему сделать это), и будет докачивать только те серии, которых у вас ещё нет. Старые серии при этом не удаляются, а продолжают раздаваться!
Eсли вы уже удалили старые серии, то предотвратить повторную закачку старых серий можно, отжав галочку в соответсвующих местах при запуске нового торрента. По возможности, желательно не удалять старые серии как можно дольше, чтобы релизер не столько продолжал раздавать старые серии, а смог сконцентрироваться на новых.
pb.wtf



Скачать Ланцет через торрент https://c.radikal.ru/c21/1901/c4/6b492d282b7c.jpg Скачать фильм Ланцет через торрент бесплантно в хорошем качестве Описание: Прозвище «Ланцет» Илья Ладынин получил еще в мединституте за свою любовь к хирургии. Сейчас Ладынин на грани отчаяния: жена ... 9.9 10 11
Торрент: Зарегистрирован [2019-02-09 20:54] · скачан: 81 раз
Статус: √ проверено
Размер: 11.22 GB
Как cкачать? Как скачать Ланцет через торрент | qTorrent

% Раздел Тема Автор DL S | L
Наши сериалы [ 20.91 GB ] Ланцет / Сезон: 1 / Серии: 1-16 из 16 [2019 HDTVRip 720p] bober100 Скачать
1 | 0
Наши сериалы [ 41.18 GB ] Ланцет / Сезон: 1 / Серии: 1-16 из 16 [2019 HDTV 1080i] bober100 Скачать
1 | 0
Наши сериалы [ 9.38 GB ] Ланцет / Сезон: 1 / Серии: 1-16 из 16 [2019 SATRip] bober100 Скачать
1 | 0

28-11-2019 20:33  

Отключить всю рекламу на сайте

    Дорогой пользователь! Огромная просьба, поблагодарите релизера, оцените раздачу и оставьте свои комментарий, если Вы скачали Ланцет через торрент бесплатно! Внесите свою лепту в развитие PiratBit!
    Комментировать посты могут только пользователи прошедшие не сложную регистрацию
    Показать сообщения:    

    Ланцет через торрент
    Скачать бесплатно Ланцет
    Ланцет скачать торрент
    Ланцет смотреть онлайн
    Cкачать фильм Ланцет бесплатно
    Ланцет скачать торрент в хорошем качестве
    Ланцет смотреть онлайн бесплатно в хорошем качестве


    Вы не можете начинать темы
    Вы не можете отвечать на сообщения
    Вы не можете редактировать свои сообщения
    Вы не можете удалять свои сообщения
    Вы не можете голосовать в опросах
    Вы не можете прикреплять файлы к сообщениям
    Вы можете скачивать файлы