Ссылка на приватное зеркало нашего сайта всего за 1$. Внимание количество ограничено!!!

2 сезон

iTunes

1 сезон

1

2 сезон

2 сезон

iTunes

1 сезон

RePack

30

Новинка

ВАЖНО

ИГРА 18+

pack

RePack

MK11
pack

Забери бонус

RePack

jed

!!Акция!!

Alien_Rage

RePack

fifa19

RePack

Assassins Creed: Odyssey

RePack

NEED FOR SPEED™ PAYBACK

4 сезон

9 сезон

Бесстыжие 9 сезон

Все сериалы

все сериалы на PB.wtf

RePack

FAR CRY 5
  

Тихий океан / The Pacific / Сезон: 1 / Серии: 1-10 из 10 (Джереми Подесва, Карл Франклин, Дэвид Наттер) [2010, Военный, Драма, HDTVRip] [DVO] (П.Гланц и И.Королева) pb.wtf

Тихий океан через торрент pb.wtf

Качают: 1 [ 0 KB/s ]
Размер: 6.86 GB | Добавлен: 1 год 10 мес. назад | Торрент скачан:165 раз
Скачать  

28-01-2019 19:12 Тихий океан Скачать торрент  

Тихий Океан / The Pacific

Год выпуска: 2010
Страна: США
Жанр: военный, драма
Продолжительность: 10 x ~00:54:51
Перевод: Профессиональный (двухголосый, закадровый) - П.Гланц и И.Королева
субтитры: нет
Режиссер: Джереми Подесва, Карл Франклин, Дэвид Наттер

В ролях: Боб Рамнок, Тоби Мур, Джошуа Битон, Джеймс Бэдж Дэйл, Джозеф Маццелло, Джон Седа, Джон Бернтал, Том Бадж, Джош Хелман, Эштон Холмс
Описание: Сериал «Тихий океан» — новое творение создателей знаменитого сериала «Братья по оружию» (Band of Brothers) Тома Хэнкса и Стивена Спилберга. Сериал представляет собой историю трех солдат армии США, которые принимают участие в боевых действиях на Тихом океане. Основа сценария The Pacific — это несколько документальных источников, в частности книга Евгения Следжа «With the Old Breed», мемуары Роберта Лекки «Каска вместо подушки» («Helmet for My Pillow»), а также реальная история морского пехотинца Джона Бэсилона — единственного морского пехотинца, заслужившего своим героизмом во время войны и Почётную медаль Конгресса (Medal of Honor), и военно-морской крест (Navy Cross), и «Пурпурное сердце» (Purple Heart) и погибшего в битве при Иводзиме.

rating

Качество: HDTVRip
Формат: AVI
Видео кодек: XviD
Аудио кодек: AC3
Видео: 720x400 (1.80:1), 23.976 fps, XviD build 50 ~1649 kbps avg, 0.24 bit/pixel
Аудио: 48 kHz, AC3 Dolby Digital, 3/2 (L,C,R,l,r) + LFE ch, ~384.00 kbps avg
General
Complete name : F:\Тихий океан - 1 сезон\Tihiy_okean_0101_[torrents.ru]_by_Scarabey.avi
Format : AVI
Format/Info : Audio Video Interleave
File size : 698 MiB
Duration : 54 min 50 s
Overall bit rate : 1 779 kb/s
Writing application : VirtualDubMod 1.6.0.0 SURROUND (build 2560/release)
Writing library : VirtualDubMod build 2560/release

Video
ID : 0
Format : MPEG-4 Visual
Format profile : Advanced Simple@L5
Format settings : BVOP1
Format settings, BVOP : 1
Format settings, QPel : No
Format settings, GMC : No warppoints
Format settings, Matrix : Default (MPEG)
Codec ID : XVID
Codec ID/Hint : XviD
Duration : 54 min 50 s
Bit rate : 1 385 kb/s
Width : 720 pixels
Height : 400 pixels
Display aspect ratio : 16:9
Frame rate : 23.976 (24000/1001) FPS
Color space : YUV
Chroma subsampling : 4:2:0
Bit depth : 8 bits
Scan type : Progressive
Compression mode : Lossy
Bits/(Pixel*Frame) : 0.201
Stream size : 543 MiB (78%)
Writing library : XviD 1.2.1 (UTC 2008-12-04)

Audio
ID : 1
Format : AC-3
Format/Info : Audio Coding 3
Format settings, Endianness : Big
Codec ID : 2000
Duration : 54 min 50 s
Bit rate mode : Constant
Bit rate : 384 kb/s
Channel(s) : 6 channels
Channel positions : Front: L C R, Side: L R, LFE
Sampling rate : 48.0 kHz
Frame rate : 31.250 FPS (1536 SPF)
Bit depth : 16 bits
Compression mode : Lossy
Stream size : 151 MiB (22%)
Alignment : Aligned on interleaves
Interleave, duration : 42 ms (1.00 video frame)
Interleave, preload duratio : 512 ms
Service kind : Complete Main
скриншот   скриншот   скриншот   скриншот  
pb.wtf



Скачать Тихий океан через торрент http://i2.fastpic.ru/big/2010/0319/f4/19e949085dfec22acd01bf52a63407f4.png Скачать фильм Тихий океан через торрент бесплантно в хорошем качестве Описание: Сериал «Тихий океан» — новое творение создателей знаменитого сериала «Братья по оружию» (Band of Brothers) Тома Хэнкса и Стивена ... 8.5 10 6
Info! Золотая раздача, скачанное не засчитывается.
Торрент: Зарегистрирован [2019-01-28 19:12] · скачан: 165 раз
Статус: √ проверено
Размер: 6.86 GB
Как cкачать? Как скачать Тихий океан через торрент | qTorrent

% Раздел Тема Автор DL S | L
Зарубежные сериалы [ 4.23 GB ] На Тихом океане / / [2010 / Военный HDTVRip ] {LOSTFILM} Romeo0502 Скачать
1 | 1

28-11-2019 20:33  

Отключить всю рекламу на сайте

28-01-2019 20:02 Тихий океан Скачать торрент  

Это очень четкий сериал спилберг с том хенксом постаралисьpb.wtf



    Дорогой пользователь! Огромная просьба, поблагодарите релизера, оцените раздачу и оставьте свои комментарий, если Вы скачали Тихий океан через торрент бесплатно! Внесите свою лепту в развитие PiratBit!
    Комментировать посты могут только пользователи прошедшие не сложную регистрацию
    Показать сообщения:    

    Тихий океан через торрент
    Скачать бесплатно Тихий океан
    Тихий океан скачать торрент
    Тихий океан смотреть онлайн
    Cкачать фильм Тихий океан бесплатно
    Тихий океан скачать торрент в хорошем качестве
    Тихий океан смотреть онлайн бесплатно в хорошем качестве


    Вы не можете начинать темы
    Вы не можете отвечать на сообщения
    Вы не можете редактировать свои сообщения
    Вы не можете удалять свои сообщения
    Вы не можете голосовать в опросах
    Вы не можете прикреплять файлы к сообщениям
    Вы можете скачивать файлы