Ссылка на приватное зеркало всего за 1$. Внимание количество ограничено!!!

OK

1+1

iTunes

мы

OK

1

WEB-DLRip

Джокер

Пифагор

Ведьмак / The Witcher сериал

Лицензия

ПШазам

ОК

Оно 2

iTunes

30
pack

Вам бонус

ВАЖНО

!!Акция!!

Alien_RageХит недели

RePack

Resident Evil 21

ИГРА 18+

pack

RePack

jed

RePack

fifa19

RePack

Assassins Creed: Odyssey

RePack

NEED FOR SPEED™ PAYBACK

4 сезон

9 сезон

Бесстыжие 9 сезон

Все сериалы

все сериалы на PB.wtf

RePack

FAR CRY 5
  

Эль Чапо / El Chapo / Сезон: 3 / Серии: 1-13 из 13 (Эрнесто Контрера, Хосе Мануэль Кравиото) [2019, Драма, криминал, WEBRip 720p] MVO [Good People] pb.wtf

Эль Чапо через торрент pb.wtf

Размер: 14.78 GB | Добавлен: 11 мес. назад | Торрент скачан:7 раз
Скачать  

28-01-2019 19:56 Эль Чапо Скачать торрент  

Эль Чапо / El Chapo Оригинальное название: El Chapo
Русское название: Эль Чапо
Год выпуска: 2019
Страна: США
Жанр: Драма, криминал
Продолжительность: ~42-55 мин.
Перевод: Профессиональный (многоголосый закадровый) Good People
Субтитры: Есть (английские)

Режиссёр: Эрнесто Контрера, Хосе Мануэль Кравиото

rating

В ролях:

Марко Де Ла О, Валентина Акоста, Алехандро Агилар, Хуан Карлос Олива, Родриго Абд, Жюльетта Пардо, Умберто Бусто и др.

Описание:

В центре сюжета окажется жизнь и деяния некоего Хоакина Гусмана Лоэра, широко известного как «Эль Чапо», что означает Коротышка. Этот человек начал свою криминальную карьеру в далекие восьмидесятые в качестве обычной пешки, однако быстро доказал всем, что его намерения серьезные и с ними лучше считаться. Опасный мир криминала строится на насилии, власти и деньгах, поэтому ценой каждому поступку может стать человеческая жизнь. Начав с нуля, наш герой добился невероятных высот, став главой одного из самых влиятельных наркокартелей в мире. И если его предшественники были достаточно скромны и умеренны в желаниях, то Коротышка умудрился превратиться в настоящего персонажа шоу-бизнеса, завоевав себе огромное количество «поклонников» в Мексике и Соединенных Штатах. Истинный медийный персонаж продержался на вершине целую четверть века. Создатели сериала постараются отделить многочисленные выдумки от реальных фактов и показать максимально реалистично будни Эль Чапо.

Качество: WEBRip 720p
Формат: MKV
Видео кодек: AVC
Аудио кодек: AC3

Видео: H264, 1280x720, 29.976 fps, ~2600kbps, 0.116 bit/pixel
Аудио 1: Dolby AC3 48000Hz 6ch 640Kbps Русский
Аудио 2: Dolby E-AC3 48000Hz 6ch 640Kbps Оригинал


Реклама: Присутствует звуковая (два раза в начале и конце по 12 сек.)
General
Unique ID                   : 223102777410906845702740097466183496793 (0xA7D8082F218BB5D9A5CB84EDDF60B459)
Complete name               : El.Chapo.S03E01.720p.NF.WEB-DL.DD.5.1.H.264-GoodPeople.mkv
Format                      : Matroska
Format version              : Version 4 / Version 2
File size                   : 1.30 GiB
Duration                    : 41mn 17s
Overall bit rate mode       : Variable
Overall bit rate            : 4 491 Kbps
Encoded date                : UTC 2019-01-27 22:24:36
Writing application         : mkvmerge v17.0.0 ('Be Ur Friend') 64-bit
Writing library             : libebml v1.3.5 + libmatroska v1.4.8
DURATION                    : 00:41:17.216000000
NUMBER_OF_FRAMES            : 77413
NUMBER_OF_BYTES             : 198177280
_STATISTICS_WRITING_APP     : mkvmerge v17.0.0 ('Be Ur Friend') 64-bit
_STATISTICS_WRITING_DATE_UT : 2019-01-27 22:24:36
_STATISTICS_TAGS            : BPS DURATION NUMBER_OF_FRAMES NUMBER_OF_BYTES

Video
ID                          : 1
Format                      : AVC
Format/Info                 : Advanced Video Codec
Format profile              : Main@L3.1
Format settings, CABAC      : Yes
Format settings, ReFrames   : 3 frames
Codec ID                    : V_MPEG4/ISO/AVC
Duration                    : 41mn 17s
Bit rate mode               : Variable
Bit rate                    : 2 482 Kbps
Nominal bit rate            : 2 610 Kbps
Maximum bit rate            : 3 915 Kbps
Width                       : 1 280 pixels
Height                      : 720 pixels
Display aspect ratio        : 16:9
Frame rate mode             : Constant
Frame rate                  : 23.976 fps
Color space                 : YUV
Chroma subsampling          : 4:2:0
Bit depth                   : 8 bits
Scan type                   : Progressive
Bits/(Pixel*Frame)          : 0.112
Stream size                 : 733 MiB (55%)
Writing library             : x264 core 148 r2715 7e75228
Encoding settings           : cabac=1 / ref=3 / deblock=1:0:0 / analyse=0x1:0x111 / me=umh / subme=10 / psy=1 / psy_rd=1.00:0.00 / mixed_ref=1 / me_range=24 / chroma_me=1 / trellis=2 / 8x8dct=0 / cqm=0 / deadzone=21,11 / fast_pskip=1 / chroma_qp_offset=-2 / threads=8 / lookahead_threads=1 / sliced_threads=0 / nr=0 / decimate=1 / interlaced=0 / bluray_compat=0 / stitchable=1 / constrained_intra=0 / bframes=2 / b_pyramid=0 / b_adapt=2 / b_bias=0 / direct=3 / weightb=1 / open_gop=0 / weightp=2 / keyint=48 / keyint_min=25 / scenecut=0 / intra_refresh=0 / rc_lookahead=48 / rc=2pass / mbtree=1 / bitrate=2610 / ratetol=1.0 / qcomp=0.50 / qpmin=6 / qpmax=51 / qpstep=4 / cplxblur=20.0 / qblur=0.5 / vbv_maxrate=3915 / vbv_bufsize=5220 / nal_hrd=vbr / filler=0 / ip_ratio=1.40 / aq=1:1.00
Default                     : Yes
Forced                      : No
DURATION                    : 00:41:17.216000000
NUMBER_OF_FRAMES            : 77413
NUMBER_OF_BYTES             : 198177280
_STATISTICS_WRITING_APP     : mkvmerge v17.0.0 ('Be Ur Friend') 64-bit
_STATISTICS_WRITING_DATE_UT : 2019-01-27 22:24:36
_STATISTICS_TAGS            : BPS DURATION NUMBER_OF_FRAMES NUMBER_OF_BYTES

Audio #1
ID                          : 2
Format                      : AC-3
Format/Info                 : Audio Coding 3
Mode extension              : CM (complete main)
Format settings, Endianness : Big
Codec ID                    : A_AC3
Duration                    : 41mn 17s
Bit rate mode               : Constant
Bit rate                    : 640 Kbps
Channel(s)                  : 6 channels
Channel positions           : Front: L C R, Side: L R, LFE
Sampling rate               : 48.0 KHz
Compression mode            : Lossy
Stream size                 : 189 MiB (14%)
Language                    : Russian
Default                     : Yes
Forced                      : No

Audio #2
ID                          : 3
Format                      : E-AC-3
Format/Info                 : Audio Coding 3
Format settings, Endianness : Big
Codec ID                    : A_EAC3
Duration                    : 41mn 17s
Bit rate mode               : Constant
Bit rate                    : 640 Kbps
Channel(s)                  : 6 channels
Channel positions           : Front: L C R, Side: L R, LFE
Sampling rate               : 48.0 KHz
Compression mode            : Lossy
Stream size                 : 189 MiB (14%)
Title                       : Latin American
Language                    : Spanish
Default                     : No
Forced                      : No

Audio #3
ID                          : 4
Format                      : E-AC-3
Format/Info                 : Audio Coding 3
Format settings, Endianness : Big
Codec ID                    : A_EAC3
Duration                    : 41mn 17s
Bit rate mode               : Constant
Bit rate                    : 640 Kbps
Channel(s)                  : 6 channels
Channel positions           : Front: L C R, Side: L R, LFE
Sampling rate               : 48.0 KHz
Compression mode            : Lossy
Stream size                 : 189 MiB (14%)
Language                    : English
Default                     : No
Forced                      : No

Text #1
ID                          : 5
Format                      : UTF-8
Codec ID                    : S_TEXT/UTF8
Codec ID/Info               : UTF-8 Plain Text
Language                    : English
Default                     : Yes
Forced                      : No

Text #2
ID                          : 6
Format                      : UTF-8
Codec ID                    : S_TEXT/UTF8
Codec ID/Info               : UTF-8 Plain Text
Title                       : Forced (English Dub)
Language                    : English
Default                     : No
Forced                      : No

Text #3
ID                          : 7
Format                      : UTF-8
Codec ID                    : S_TEXT/UTF8
Codec ID/Info               : UTF-8 Plain Text
Title                       : Latin American
Language                    : Spanish
Default                     : No
Forced                      : No
pb.wtf



Скачать Эль Чапо через торрент https://i110.fastpic.ru/big/2019/0127/0c/161dc7874799effd955a598a6210020c.jpg Скачать фильм Эль Чапо через торрент бесплантно в хорошем качестве Описание: В центре сюжета окажется жизнь и деяния некоего Хоакина Гусмана Лоэра, широко известного как «Эль Чапо», что означает Коротышка. ... 10 10 4
Торрент: Зарегистрирован [2019-01-28 19:56] · скачан: 7 раз
Статус: √ проверено
Размер: 14.78 GB
Как cкачать? Как скачать Эль Чапо через торрент | qTorrent

% Раздел Тема Автор DL S | L
Зарубежные сериалы [ 22.92 GB ] Эль Чапо / El Chapo / Сезон: 3 / Серии: 1-13 из 13 [2018 биография WEB-DL 1080p] MVO [NewStudio] bober100 Скачать
1 | 0
Зарубежные сериалы [ 6.36 GB ] Эль Чапо / El Chapo / Сезон: 3 / Серии: 1-13 из 13 [2018 WEBRip] MVO [Good People] bober100 Скачать
1 | 0
Зарубежные сериалы [ 10.01 GB ] Эль Чапо / El Chapo / Сезон: 3 / Серии: 1-13 из 13 [2018 биография WEBRip 720p] MVO [ColdFilm] bober100 Скачать
1 | 0
Зарубежные сериалы [ 4.39 GB ] Эль Чапо / El Chapo / Сезон: 3 / Серии: 1-13 из 13 [2018 биография WEBRip] MVO [ColdFilm] bober100 Скачать
1 | 0

28-11-2019 20:33  

Отключить всю рекламу на сайте

    Дорогой пользователь! Огромная просьба, поблагодарите релизера, оцените раздачу и оставьте свои комментарий, если Вы скачали Эль Чапо через торрент бесплатно! Внесите свою лепту в развитие PiratBit!
    Комментировать посты могут только пользователи прошедшие не сложную регистрацию
    Показать сообщения:    

    Эль Чапо через торрент
    Скачать бесплатно Эль Чапо
    Эль Чапо скачать торрент
    Эль Чапо смотреть онлайн
    Cкачать фильм Эль Чапо бесплатно
    Эль Чапо скачать торрент в хорошем качестве
    Эль Чапо смотреть онлайн бесплатно в хорошем качестве


    Вы не можете начинать темы
    Вы не можете отвечать на сообщения
    Вы не можете редактировать свои сообщения
    Вы не можете удалять свои сообщения
    Вы не можете голосовать в опросах
    Вы не можете прикреплять файлы к сообщениям
    Вы можете скачивать файлы